Белый песок (Мурад Алиев, Андрес Пуустусмаа) [2010, приключенческий, боевик, SATRip]

Reply to topic
DL-List and Torrent activity
Size:  890 MB   |    Registered:  4 years   |    Completed:  0 times

Seeder not seen: Never

 
   
 
 
Author Message

star21 ®

Gender: Female

Longevity: 4 years

Posts: 551946

Location: Екатеринбург

Post 11-Nov-2015 18:15

[Quote]

Белый песок (Мурад Алиев, Андрес Пуустусмаа) [2010, приключенческий, боевик, SATRip] Торрент
Белый песок
Формат: SATRip, AVI, XviD, MP3
Режиссер: Мурад Алиев, Андрес Пуустусмаа
Жанр: приключения, боевик
Продолжительность: 01:13:41
Год выпуска: 2010
В ролях: Зара Мгоян, Валерий Николаев, Андрей Гуськов, Михаил Ефремов
Описание: Фильм основан на реальных событиях конца 1980-х годов и рассказывает об одной из крупнейших операций по борьбе с международным наркобизнесом. Александр Ветров при выполнении боевого задания в Афганистане попадает в плен. Он еще не знает, что для семьи и друзей он мертв, а для страны - предатель. Ветров использует единственную смертельно опасную возможность вернуться на Родину и соглашается сопровождать караван с товаром своего хозяина. В случае успешного завершения миссии ему обещана свобода. Так к советской границе начинает движение замаскированный груз - огромная партия наркотиков. Ни Али, ни его хозяин не догадываются, сколько претендентов на товар будут "вести" его, пересекая границы, и сколько опасных событий ждет караван в пути. Оказавшись в ситуации "загнанного волка", Ветров пойдет до конца, ему предстоит не раз вступить в схватку, найти настоящего друга и обрести любовь.
Рейтинг на КиноПоиске: отсутствует
Видео: 704x384 (1.83:1), 25 fps, XviD ~1551 kbps avg, 0.23 bit/pixel
Аудио: 44.100 kHz, MPEG Layer 3, 2 ch, ~128.00 kbps avg

Отчёт MediaInfo

General
Complete name : E:\РЕЛИЗЫ\Все релизы 14\belui_pesok_[tfile.ru].avi
Format : AVI
Format/Info : Audio Video Interleave
File size : 890 MiB
Duration : 1h 13mn
Overall bit rate : 1 689 Kbps
Writing library : VirtualDub build 32839/release
Video
ID : 0
Format : MPEG-4 Visual
Format profile : Simple@L1
Format settings, BVOP : No
Format settings, QPel : No
Format settings, GMC : No warppoints
Format settings, Matrix : Default (H.263)
Codec ID : XVID
Codec ID/Hint : XviD
Duration : 1h 13mn
Bit rate : 1 551 Kbps
Width : 704 pixels
Height : 384 pixels
Display aspect ratio : 16:9
Frame rate : 25.000 fps
Color space : YUV
Chroma subsampling : 4:2:0
Bit depth : 8 bits
Scan type : Progressive
Compression mode : Lossy
Bits/(Pixel*Frame) : 0.230
Stream size : 818 MiB (92%)
Writing library : Lavc52.84.0
Audio
ID : 1
Format : MPEG Audio
Format version : Version 1
Format profile : Layer 3
Mode : Joint stereo
Mode extension : MS Stereo
Codec ID : 55
Codec ID/Hint : MP3
Duration : 1h 13mn
Bit rate mode : Constant
Bit rate : 128 Kbps
Channel(s) : 2 channels
Sampling rate : 44.1 KHz
Compression mode : Lossy
Stream size : 67.5 MiB (8%)
Alignment : Split accross interleaves
Interleave, duration : 40 ms (1.00 video frame)
Interleave, preload duration : 500 ms

To download the content you need:
1. Download and install torrent client [for Windows] or for mobile system
2. Click on [Download]
Attention.
If the test YOU are NOT a ROBOT - does not work, then You are using an outdated browser.
Install the current browser and click on [Download]
Security: torrent client is allowed by Kaspersky.

[en.asmlocator.ru].t138.torrent 
Torrent: Registered [ 2015-11-11 18:14 ] · CE8C659BFEEB2DD80CBA312C276C765BF253B9F9

Download .torrent

Download

19 KB

Status: checked
Completed: 0 times
Size: 890 MB
terms.php
[Profile] [PM]
Display posts:    
Reply to topic

Current time is: 13-Nov 11:37

All times are UTC ± 0



You cannot post new topics in this forum
You cannot reply to topics in this forum
You cannot edit your posts in this forum
You cannot delete your posts in this forum
You cannot vote in polls in this forum
You cannot attach files in this forum
You can download files in this forum
Верим фактам, а не вранью Путина! Факт, что Правительство ведёт Россию к истреблению.
Так как численность населения падает, даже не смотря на приток эмигрантов!
Русская нация вымирает и вырождается, смешиваясь с эмигрантами!
Факт, что военных и граждан предприятий заставляют голосовать за партию Единая Россия и Путина
ПОД СТРАХОМ УВОЛЬНЕНИЯ!
Нам не нужно Правительство, блокирующее личную жизнь, интернет, нарушающее сохранность данных.
Все эти действия финансируются за счёт народа!