(Euro House) [CDM] Rose Laurens - Africa (Remix \'94) - 1994, FLAC (image+.cue), lossless

Reply to topic
DL-List and Torrent activity
Size:  94 MB   |    Registered:  1 month 17 days   |    Completed:  0 times

Seeder not seen: Never

 
   
 
 
Author Message

star21 ®

Gender: Female

Longevity: 4 years 8 months

Posts: 551945

Location: Екатеринбург

Post 26-May-2020 20:50

[Quote]

Rose Laurens - Africa (Remix '94)(CDM)(1994)
Жанр: Euro House
Носитель: CDM
Страна-производитель диска (релиза): Germany
Год издания: 1994
Издатель (лейбл): RCA, BMG
Номер по каталогу: 74321 18089 2
Страна исполнителя (группы): France
Аудиокодек: FLAC (*.flac)
Тип рипа: image+.cue
Продолжительность: 00:12:12
Источник: собственный рип
Наличие сканов в содержимом раздачи: да
Треклист:
1 Africa (Berlin Single Radio Edit) 3:21
2 Africa (Paris Single Radio Edit) 3:50
3 Africa (Berlin Club Mix) 4:55

Лог создания рипа

Exact Audio Copy V1.1 from 23. June 2015
Отчёт EAC об извлечении, выполненном 26. сентября 2019, 20:52
Rose Laurens / Africa (Remix '94)(CDM)
Дисковод: TSSTcorpCDDVDW SH-S223C Adapter: 1 ID: 0
Режим чтения : ДостоверностьИспользование точного потока : ДаОтключение кэша аудио : ДаИспользование указателей C2 : Нет
Коррекция смещения при чтении : 697Способность читать области Lead-in и Lead-out : НетЗаполнение пропущенных сэмплов тишиной : ДаУдаление блоков с тишиной в начале и конце : НетПри вычислениях CRC использовались нулевые сэмплы : ДаИнтерфейс : Встроенный Win32-интерфейс для Win NT/2000
Выходной формат : Пользовательский кодировщикВыбранный битрейт : 128 kBit/sКачество : ВысокийДобавление ID3-тега : НетУтилита сжатия : C:\Program Files\FLAC Frontend\tools\flac.exeДополнительные параметры : -V -8 %source%
TOC извлечённого CD
Трек | Старт | Длительность | Начальный сектор | Конечный сектор --------------------------------------------------------------------- 1 | 0:00.00 | 3:24.00 | 0 | 15299 2 | 3:24.00 | 3:53.00 | 15300 | 32774 3 | 7:17.00 | 4:55.00 | 32775 | 54899
Характеристики диапазона извлечения и сообщения об ошибках
Выбранный диапазон
Имя файла E:\Torrent\Мои Раздачи\Rose Laurens - Africa (Remix '94)(CDM)\Rose Laurens - Africa (Remix '94)(CDM).wav
Пиковый уровень 98.8 % Скорость извлечения 2.2 X Качество диапазона 100.0 % CRC теста C68AE8C3 CRC копии C68AE8C3 Копирование... OK
Ошибок не произошло
AccurateRip: сводка
Трек 1 : извлечено точно (доверие 6) [49E949E5] (AR v2)Трек 2 : извлечено точно (доверие 6) [A1555AC1] (AR v2)Трек 3 : извлечено точно (доверие 6) [78268A55] (AR v2)
Все треки извлечены точно
Конец отчёта
---- CUETools DB Plugin V2.1.6
[CTDB TOCID: 9E2TW.rRXQw9Ii.uU2Dgc_RoHVs-] foundSubmit result: already submittedTrack | CTDB Status 1 | (10/10) Accurately ripped 2 | (10/10) Accurately ripped 3 | (10/10) Accurately ripped
==== Контрольная сумма отчёта 2E27837B799890526692983E11F6BB0870DD1522DB98F1023628BD00AF9338FD ====

Содержание индексной карты (.CUE)

REM GENRE Euro-HouseREM DATE 1994REM DISCID 1A02DC03REM COMMENT "ExactAudioCopy v1.1"PERFORMER "Rose Laurens"TITLE "Africa (Remix '94)(CDM) "FILE "Rose Laurens - Africa (Remix '94)(CDM).flac" WAVE  TRACK 01 AUDIO    TITLE "Africa (Berlin Single Radio Edit)"    PERFORMER "Rose Laurens"    INDEX 01 00:00:00  TRACK 02 AUDIO    TITLE "Africa (Paris Single Radio Edit)"    PERFORMER "Rose Laurens"    INDEX 00 03:23:00    INDEX 01 03:24:00  TRACK 03 AUDIO    TITLE "Africa (Berlin Club Mix)"    PERFORMER "Rose Laurens"    INDEX 01 07:17:00

To download the content you need:
1. Download and install torrent client [for Windows] or for mobile system
2. Click on [Download]
Attention.
If the test YOU are NOT a ROBOT - does not work, then You are using an outdated browser.
Install the current browser and click on [Download]

Do not work with Yandex browser. Uploading files to them is erroneous.
Security: torrent client is allowed by Kaspersky.

[en.asmlocator.ru].t738118.torrent 
Torrent: Registered [ 2020-05-26 20:50 ] · 297E4E2437BE9C5F949B29A3FA0C486B19243245

Download .torrent

Download

16 KB

Status: checked
Completed: 0 times
Size: 94 MB
terms.php
[Profile] [PM]
Display posts:    
Reply to topic

Current time is: 13-Jul 02:38

All times are UTC ± 0



You cannot post new topics in this forum
You cannot reply to topics in this forum
You cannot edit your posts in this forum
You cannot delete your posts in this forum
You cannot vote in polls in this forum
You cannot attach files in this forum
You can download files in this forum
Верим фактам, а не вранью Путина! Факт, что Правительство ведёт Россию к истреблению.
Так как численность населения падает, даже не смотря на приток эмигрантов!
Русская нация вымирает и вырождается, смешиваясь с эмигрантами!
Факт, что военных и граждан предприятий заставляют голосовать за партию Единая Россия и Путина
ПОД СТРАХОМ УВОЛЬНЕНИЯ!
Нам не нужно Правительство, блокирующее личную жизнь, интернет, нарушающее сохранность данных.
Все эти действия финансируются за счёт народа!