Психея | ПТВП | Sakura | 7000$ | OTOMOTO ‎– Смерть Фест \'06: Если Ты Хочешь Жить... [2006, Nu Metal / Alt.Metal / Alt.Rock / Rapcore, DVD5]

Reply to topic
DL-List and Torrent activity
Size:  3.7 GB   |    Registered:  6 months 28 days   |    Completed:  0 times

Seeder not seen: Never

 
   
 
 
Author Message

star21 ®

Gender: Female

Longevity: 4 years 5 months

Posts: 551945

Location: Екатеринбург

Post 11-Sep-2019 22:10

[Quote]

Психея | ПТВП | Sakura | 7000$ | OTOMOTO ‎– Смерть Фест '06: Если Ты Хочешь Жить... Страна: Россия
Жанр: Nu Metal / Alt.Metal / Alt.Rock / Rapcore
Продолжительность: 01:13:23
Год выпуска: 2006
Треклист:"Отомото"
1. Время Я
2. APPOLO
3. Для тебя сынок"П.T.B.П"
1. Утро всех рабочих дней
2. Делали дела
3. Права человека"Sakura"
1. 15
2. 10
3. 12"7000$"
1. Бежать
2. Белый флаг"Психея"
1. Гимн жертв будущих самоубийц
2. Рефлекс Хичкока. порно онлайн фильм
3. Поколение Ты
4. Люди врут тебе, ты врешь людям, но еще чаще ты врешь сам себе
5. Говно рэп
6. Как Звезда Рок-н-ролла
7. Клон Future
8. Сид Спирс
9. Людям планеты ЗемляКачество: DVD5
Формат: DVD video
Видео кодек: MPEG2
Аудио кодек: AC3
Видео: Video: MPEG2 Video 720x576 (4:3) 25fps 6500kbps [V: mpeg2 main, yuv420p, 720x576, 6500 kb/
Аудио: Audio: MPEG Audio 48000Hz stereo 384kbps [A: mp2, 48000 Hz, stereo, 384 kb/s]

DVDinfo

GeneralComplete name                  : F:\Ink\Мои Документы\Video\Психея, ПТВП, Sakura, 7000$, OTOMOTO ‎– Смерть Фест '06 Если Ты Хочешь Жить (2006)\VIDEO_TS\VTS_02_2.VOBFormat                         : MPEG-PSFile size                      : 1 024 MiBDuration                       : 20 min 20 sOverall bit rate mode          : ConstantOverall bit rate               : 7 035 kb/sVideoID                             : 224 (0xE0)Format                         : MPEG VideoFormat version                 : Version 2Format profile                 : Main@MainFormat settings                : BVOPFormat settings, BVOP          : YesFormat settings, Matrix        : DefaultFormat settings, GOP           : M=3, N=12Format settings, picture struc : FrameDuration                       : 20 min 20 sBit rate mode                  : ConstantBit rate                       : 6 500 kb/sWidth                          : 720 pixelsHeight                         : 576 pixelsDisplay aspect ratio           : 4:3Frame rate                     : 25.000 FPSStandard                       : PALColor space                    : YUVChroma subsampling             : 4:2:0Bit depth                      : 8 bitsScan type                      : InterlacedScan order                     : Bottom Field FirstCompression mode               : LossyBits/(Pixel*Frame)             : 0.627Time code of first frame       : 00:20:21:01Time code source               : Group of pictures headerGOP, Open/Closed               : OpenStream size                    : 948 MiB (93%)AudioID                             : 192 (0xC0)Format                         : MPEG AudioFormat version                 : Version 1Format profile                 : Layer 2Duration                       : 20 min 20 sBit rate mode                  : ConstantBit rate                       : 384 kb/sChannel(s)                     : 2 channelsSampling rate                  : 48.0 kHzFrame rate                     : 41.667 FPS (1152 SPF)Compression mode               : LossyDelay relative to video        : -288 msStream size                    : 55.9 MiB (5%)Menu

Скриншоты меню

Скриншоты

To download the content you need:
1. Download and install torrent client [for Windows] or for mobile system
2. Click on [Download]
Attention.
If the test YOU are NOT a ROBOT - does not work, then You are using an outdated browser.
Install the current browser and click on [Download]

Do not work with Yandex browser. Uploading files to them is erroneous.
Security: torrent client is allowed by Kaspersky.

[en.asmlocator.ru].t663252.torrent 
Torrent: Registered [ 2019-09-11 22:10 ] · C6A5145C10959D72D577894F22DA0C9A4FECB1FE

Download .torrent

Download

20 KB

Status: checked
Completed: 0 times
Size: 3.7 GB
terms.php
[Profile] [PM]
Display posts:    
Reply to topic

Current time is: 10-Apr 19:51

All times are UTC ± 0



You cannot post new topics in this forum
You cannot reply to topics in this forum
You cannot edit your posts in this forum
You cannot delete your posts in this forum
You cannot vote in polls in this forum
You cannot attach files in this forum
You can download files in this forum
Верим фактам, а не вранью Путина! Факт, что Правительство ведёт Россию к истреблению.
Так как численность населения падает, даже не смотря на приток эмигрантов!
Русская нация вымирает и вырождается, смешиваясь с эмигрантами!
Факт, что военных и граждан предприятий заставляют голосовать за партию Единая Россия и Путина
ПОД СТРАХОМ УВОЛЬНЕНИЯ!
Нам не нужно Правительство, блокирующее личную жизнь, интернет, нарушающее сохранность данных.
Все эти действия финансируются за счёт народа!