(Dark Ambient, Electroacoustic) [WEB] Black to Comm - Before After [l. Thrill Jockey Records] - 2019, FLAC (tracks), lossless

Reply to topic
DL-List and Torrent activity
Size:  193 MB   |    Registered:  8 months 19 days   |    Completed:  0 times

Seeder not seen: Never

 
   
 
 
Author Message

star21 ®

Gender: Female

Longevity: 4 years 6 months

Posts: 551945

Location: Екатеринбург

Post 09-Sep-2019 23:10

[Quote]

Black to Comm"Before After"2019
Marc Richter [birth name] • Germany (Hamburg, Hamburg).
Жанры • Dark Ambient | Electroacoustic
Издатель • Thrill Jockey Records (USA)
Номер по каталогу • Thrill-496
Аудиокодек • FLAC (*.flac)
Тип рипа • tracks
Источник • redacted.ch [bandcamp.com]
Носитель • web.
Track Listing [00:31:37]01. États-Unis .(05:59)
02. His Bristling Irascibility (Mirror Blues) .(02:39)
03. They Said Sleep .(04:51)
04. Océans .(04:22)
05. Eden-Olympia .(04:01)
06. Othering .(04:28)
07. The Seven of Horses .(03:27)
08. Perfume Sample .(01:55).
released July 12, 2019

+ / -

к а ч е с т в о

-----------------------DON'T MODIFY THIS FILE-----------------------PERFORMER: auCDtect Task Manager, ver. 1.6.0 RC1 build 1.6.0.1Copyright (c) 2008-2010 y-soft. All rights reservedANALYZER: auCDtect: CD records authenticity detector, version 0.8.2Copyright (c) 2004 Oleg Berngardt. All rights reserved.Copyright (c) 2004 Alexander Djourik. All rights reserved.FILE: 08. Perfume Sample.flac  Size: 11828474 Hash: 9BB1778E7975D5E5272AD699A64F7719 Accuracy: -m0  Conclusion: CDDA 100%  Signature: 279918B93BC709E7905B5E6E253B933F22396A63FILE: 07. The Seven of Horses.flac  Size: 24202224 Hash: F4A84FD78188FC7D95B827EAD3D3038E Accuracy: -m0  Conclusion: CDDA 100%  Signature: 9DFE70738DD39AC10C03EAF58D8ACB4012186C7DFILE: 06. Othering.flac  Size: 30069246 Hash: 56A458B0E7709854C2BC3CF2FF1247D9 Accuracy: -m0  Conclusion: CDDA 100%  Signature: FF731B520F82704BE241A659F897CEE0E3676852FILE: 05. Eden-Olympia.flac  Size: 24514951 Hash: 370733955AB558CE5B0D2BC02DCC2076 Accuracy: -m0  Conclusion: CDDA 100%  Signature: 4026C5A80AB976451BA0F861A109392C1DAA8D05FILE: 04. Océans.flac  Size: 23929745 Hash: DEB8BC27E9FD0014723C1CCDE1680833 Accuracy: -m0  Conclusion: CDDA 100%  Signature: CD438405BB166BB9F2A028DF77EB5BFB67C2B3FFFILE: 03. They Said Sleep.flac  Size: 29696405 Hash: 185A66A82105AB3D56BC4E3489F8D4A3 Accuracy: -m0  Conclusion: CDDA 100%  Signature: 8413E5FC6AF86E11F805381A685DDB74D72EBAC7FILE: 02. His Bristling Irascibility (Mirror Blues).flac  Size: 18061373 Hash: 8123ED6021DB42F5C89614A35A407814 Accuracy: -m0  Conclusion: CDDA 100%  Signature: FAEDF21985AD2A0FD534BF398FA5EE2DB3CA36AEFILE: 01. États-Unis.flac  Size: 38310180 Hash: 8F0882479CA2BBDEBE15E4609C112715 Accuracy: -m0  Conclusion: CDDA 100%  Signature: C182453007C38CB5C36F9D4E8CA6FAAFD282EDA2

д д

foobar2000 1.3.9 / Dynamic Range Meter 1.1.1log date: 2019-08-07 00:12:32--------------------------------------------------------------------------------Analyzed: Black to Comm / Before After--------------------------------------------------------------------------------DR         Peak         RMS     Duration Track--------------------------------------------------------------------------------DR6       -0.30 dB    -8.92 dB      5:58 01-États-UnisDR7       -0.30 dB    -9.30 dB      2:38 02-His Bristling Irascibility (Mirror Blues)DR6       -0.30 dB   -10.15 dB      4:50 03-They Said SleepDR11      -0.30 dB   -12.01 dB      4:22 04-OcéansDR4       -0.30 dB    -7.19 dB      4:01 05-Eden-OlympiaDR5       -0.30 dB    -8.51 dB      4:27 06-OtheringDR7       -0.30 dB    -9.96 dB      3:26 07-The Seven of HorsesDR7       -0.30 dB    -8.32 dB      1:55 08-Perfume Sample--------------------------------------------------------------------------------Number of tracks:  8Official DR value: DR7Samplerate:        44100 HzChannels:          2Bits per sample:   16Bitrate:           818 kbpsCodec:             FLAC================================================================================

с п е к т р ы

To download the content you need:
1. Download and install torrent client [for Windows] or for mobile system
2. Click on [Download]
Attention.
If the test YOU are NOT a ROBOT - does not work, then You are using an outdated browser.
Install the current browser and click on [Download]

Do not work with Yandex browser. Uploading files to them is erroneous.
Security: torrent client is allowed by Kaspersky.

[en.asmlocator.ru].t662784.torrent 
Torrent: Registered [ 2019-09-09 23:10 ] · D543B921E399D7D50C1941C794399DEDF924EFC7

Download .torrent

Download

16 KB

Status: checked
Completed: 0 times
Size: 193 MB
terms.php
[Profile] [PM]
Display posts:    
Reply to topic

Current time is: 29-May 03:26

All times are UTC ± 0



You cannot post new topics in this forum
You cannot reply to topics in this forum
You cannot edit your posts in this forum
You cannot delete your posts in this forum
You cannot vote in polls in this forum
You cannot attach files in this forum
You can download files in this forum
Верим фактам, а не вранью Путина! Факт, что Правительство ведёт Россию к истреблению.
Так как численность населения падает, даже не смотря на приток эмигрантов!
Русская нация вымирает и вырождается, смешиваясь с эмигрантами!
Факт, что военных и граждан предприятий заставляют голосовать за партию Единая Россия и Путина
ПОД СТРАХОМ УВОЛЬНЕНИЯ!
Нам не нужно Правительство, блокирующее личную жизнь, интернет, нарушающее сохранность данных.
Все эти действия финансируются за счёт народа!