(Electro-Industrial, Uplifting Trance, Power Noise) [CD] Blanck Mass - Animated Violence Mild [l. Sacred Bones Records] - 2019, FLAC (tracks+.cue), lossless

Reply to topic
DL-List and Torrent activity
Size:  339 MB   |    Registered:  8 months 21 day   |    Completed:  0 times

Seeder not seen: Never

 
   
 
 
Author Message

star21 ®

Gender: Female

Longevity: 4 years 6 months

Posts: 551945

Location: Екатеринбург

Post 09-Sep-2019 23:10

[Quote]

Blanck Mass"Animated Violence Mild"2019
Benjamin John Power [birth name] • United Kingdom (London, Greater London).
Жанры • Electro-Industrial | Uplifting Trance | Power Noise
Лэйбл • Sacred Bones (USA) ⚫ № по каталогу • SBR 220CD
Кодек • FLAC ⚫ Тип рипа • tracks+.cue ⚫ Носитель • CD
Источник альбомаredacted.ch.
Track Listing [00:43:11]01. Intro .(00:36)
02. Death Drop .(07:19)
03. House vs. House .(07:42)
04. Hush Money .(05:33)
05. Love Is a Parasite .(06:17)
06. Creature / West Fuqua .(03:45)
07. No Dice .(06:07)
08. Wings of Hate .(05:54).
released August 16, 2019

+ / -

о т ч е т ъ

Exact Audio Copy V1.3 from 2. September 2016EAC extraction logfile from 16. August 2019, 20:28Blanck Mass / Animated Violence MildUsed drive  : ATAPI   DVD A  DH16AASH   Adapter: 1  ID: 0Read mode               : SecureUtilize accurate stream : YesDefeat audio cache      : YesMake use of C2 pointers : NoRead offset correction                      : 6Overread into Lead-In and Lead-Out          : NoFill up missing offset samples with silence : YesDelete leading and trailing silent blocks   : NoNull samples used in CRC calculations       : YesUsed interface                              : Native Win32 interface for Win NT & 2000Gap handling                                : Appended to previous trackUsed output format              : User Defined EncoderSelected bitrate                : 1024 kBit/sQuality                         : HighAdd ID3 tag                     : NoCommand line compressor         : C:\Program Files (x86)\Exact Audio Copy\Flac\flac.exeAdditional command line options : -8 -e -V -T "ARTIST=%artist%" -T "TITLE=%title%" -T "ALBUM=%albumtitle%" -T "DATE=%year%" -T "TRACKNUMBER=%tracknr%" -T "GENRE=%genre%" -T "PERFORMER=%albuminterpret%" -T "COMPOSER=%composer%" %haslyrics%--tag-from-file=LYRICS="%lyricsfile%"%haslyrics% -T "ALBUMARTIST=%albumartist%" -T "DISCNUMBER=%cdnumber%" -T "TOTALDISCS=%totalcds%" -T "TOTALTRACKS=%numtracks%" -T "COMMENT=%comment%" %source% -o %dest%TOC of the extracted CD     Track |   Start  |  Length  | Start sector | End sector    ---------------------------------------------------------        1  |  0:00.00 |  0:35.33 |         0    |     2657        2  |  0:35.33 |  7:18.66 |      2658    |    35573        3  |  7:54.24 |  7:41.61 |     35574    |    70209        4  | 15:36.10 |  5:32.56 |     70210    |    95165        5  | 21:08.66 |  6:16.27 |     95166    |   123392        6  | 27:25.18 |  3:44.20 |    123393    |   140212        7  | 31:09.38 |  6:06.56 |    140213    |   167718        8  | 37:16.19 |  5:53.72 |    167719    |   194265Track  1     Filename X:\B\Blanck Mass\2019 Animated Violence Mild\01 - Intro.wav     Pre-gap length  0:00:02.00     Peak level 87.8 %     Extraction speed 1.6 X     Track quality 100.0 %     Test CRC DB736443     Copy CRC DB736443     Track not present in AccurateRip database     Copy OKTrack  2     Filename X:\B\Blanck Mass\2019 Animated Violence Mild\02 - Death Drop.wav     Peak level 100.0 %     Extraction speed 3.3 X     Track quality 99.9 %     Test CRC E3EB6495     Copy CRC E3EB6495     Track not present in AccurateRip database     Copy OKTrack  3     Filename X:\B\Blanck Mass\2019 Animated Violence Mild\03 - House vs. House.wav     Peak level 100.0 %     Extraction speed 3.9 X     Track quality 99.9 %     Test CRC 13964EDD     Copy CRC 13964EDD     Track not present in AccurateRip database     Copy OKTrack  4     Filename X:\B\Blanck Mass\2019 Animated Violence Mild\04 - Hush Money.wav     Peak level 97.5 %     Extraction speed 4.8 X     Track quality 100.0 %     Test CRC 6BC4C9DF     Copy CRC 6BC4C9DF     Track not present in AccurateRip database     Copy OKTrack  5     Filename X:\B\Blanck Mass\2019 Animated Violence Mild\05 - Love Is a Parasite.wav     Peak level 100.0 %     Extraction speed 5.3 X     Track quality 100.0 %     Test CRC E249B089     Copy CRC E249B089     Track not present in AccurateRip database     Copy OKTrack  6     Filename X:\B\Blanck Mass\2019 Animated Violence Mild\06 - Creature∕West Fuqua.wav     Peak level 100.0 %     Extraction speed 5.3 X     Track quality 100.0 %     Test CRC 30149414     Copy CRC 30149414     Track not present in AccurateRip database     Copy OKTrack  7     Filename X:\B\Blanck Mass\2019 Animated Violence Mild\07 - No Dice.wav     Peak level 100.0 %     Extraction speed 5.8 X     Track quality 100.0 %     Test CRC EA358304     Copy CRC EA358304     Track not present in AccurateRip database     Copy OKTrack  8     Filename X:\B\Blanck Mass\2019 Animated Violence Mild\08 - Wings of Hate.wav     Peak level 100.0 %     Extraction speed 6.2 X     Track quality 100.0 %     Test CRC 1E5551EB     Copy CRC 1E5551EB     Track not present in AccurateRip database     Copy OKNone of the tracks are present in the AccurateRip databaseNo errors occurredEnd of status report---- CUETools DB Plugin V2.1.6[CTDB TOCID: vW9PicJ5kO5FFIIXghhtBO9zIA4-] foundSubmit result: vW9PicJ5kO5FFIIXghhtBO9zIA4- has been confirmedTrack | CTDB Status  1   | (2/2) Accurately ripped  2   | (2/2) Accurately ripped  3   | (2/2) Accurately ripped  4   | (2/2) Accurately ripped  5   | (2/2) Accurately ripped  6   | (2/2) Accurately ripped  7   | (2/2) Accurately ripped  8   | (2/2) Accurately ripped==== Log checksum D057DE5248EBCA9F259701EAC4339EBA0D05F64B3FB27B5E4658BB7F04892FA8 ====

iндѣксная карта

REM GENRE "Electro-Industrial"REM DATE 2019REM DISCID 6D0A1E08REM COMMENT "ExactAudioCopy v1.3"PERFORMER "Blanck Mass"TITLE "Animated Violence Mild"FILE "01. Intro.wav" WAVE  TRACK 01 AUDIO    TITLE "Intro"    PERFORMER "Blanck Mass"    ISRC US6DR1922001    FLAGS DCP    INDEX 01 00:00:00FILE "02. Death Drop.wav" WAVE  TRACK 02 AUDIO    TITLE "Death Drop"    PERFORMER "Blanck Mass"    ISRC US6DR1922002    FLAGS DCP    INDEX 01 00:00:00FILE "03. House vs. House.wav" WAVE  TRACK 03 AUDIO    TITLE "House vs. House"    PERFORMER "Blanck Mass"    ISRC US6DR1922002    FLAGS DCP    INDEX 01 00:00:00FILE "04. Hush Money.wav" WAVE  TRACK 04 AUDIO    TITLE "Hush Money"    PERFORMER "Blanck Mass"    ISRC US6DR1922004    FLAGS DCP    INDEX 01 00:00:00FILE "05. Love Is a Parasite.wav" WAVE  TRACK 05 AUDIO    TITLE "Love Is a Parasite"    PERFORMER "Blanck Mass"    ISRC US6DR1922005    FLAGS DCP    INDEX 01 00:00:00FILE "06. Creature. West Fuqua.wav" WAVE  TRACK 06 AUDIO    TITLE "Creature / West Fuqua"    PERFORMER "Blanck Mass"    ISRC US6DR1922006    FLAGS DCP    INDEX 01 00:00:00FILE "07. No Dice.wav" WAVE  TRACK 07 AUDIO    TITLE "No Dice"    PERFORMER "Blanck Mass"    ISRC US6DR1922006    FLAGS DCP    INDEX 01 00:00:00FILE "08. Wings of Hate.wav" WAVE  TRACK 08 AUDIO    TITLE "Wings of Hate"    PERFORMER "Blanck Mass"    ISRC US6DR1922007    FLAGS DCP    INDEX 01 00:00:00

To download the content you need:
1. Download and install torrent client [for Windows] or for mobile system
2. Click on [Download]
Attention.
If the test YOU are NOT a ROBOT - does not work, then You are using an outdated browser.
Install the current browser and click on [Download]

Do not work with Yandex browser. Uploading files to them is erroneous.
Security: torrent client is allowed by Kaspersky.

[en.asmlocator.ru].t662776.torrent 
Torrent: Registered [ 2019-09-09 23:10 ] · EB1647FB522E37EE76D78BA6ABF1B48ABED67667

Download .torrent

Download

14 KB

Status: checked
Completed: 0 times
Size: 339 MB
terms.php
[Profile] [PM]
Display posts:    
Reply to topic

Current time is: 31-May 13:25

All times are UTC ± 0



You cannot post new topics in this forum
You cannot reply to topics in this forum
You cannot edit your posts in this forum
You cannot delete your posts in this forum
You cannot vote in polls in this forum
You cannot attach files in this forum
You can download files in this forum
Верим фактам, а не вранью Путина! Факт, что Правительство ведёт Россию к истреблению.
Так как численность населения падает, даже не смотря на приток эмигрантов!
Русская нация вымирает и вырождается, смешиваясь с эмигрантами!
Факт, что военных и граждан предприятий заставляют голосовать за партию Единая Россия и Путина
ПОД СТРАХОМ УВОЛЬНЕНИЯ!
Нам не нужно Правительство, блокирующее личную жизнь, интернет, нарушающее сохранность данных.
Все эти действия финансируются за счёт народа!