Донбасс. Окраина (Ренат Давлетьяров) [2018, драма, военный, WEB-DLRip]

Reply to topic
DL-List and Torrent activity
Size:  743 MB   |    Registered:  5 months 24 days   |    Completed:  0 times

Seeder not seen: Never

 
   
 
 
Author Message

star21 ®

Gender: Female

Longevity: 4 years 3 months

Posts: 551946

Location: Екатеринбург

Post 01-Sep-2019 00:00

[Quote]

Донбасс. Окраина Страна: Россия
Жанр: драма, военный
Год выпуска: 2018
Продолжительность: 01:32:29
Субтитры: нетРежиссер:
Ренат ДавлетьяровВ ролях:
Гела Месхи, Евгений Михеев, Сергей Холмогоров, Ульяна Курочкина, Анна Пескова, Женя Малахова, Валентина Попова, Иван Неклюдов, Владимир СорковОписание:
Август 2014 года, окраина Донецка. Молодой солдат украинской армии Андрей Соколов направлен в зону военных действий водителем. Спасаясь от обстрела, он попадает в подвал жилого дома, где знакомится с несколькими совершенно разными людьми. Они пришли с разных сторон, у них разные судьбы и мировоззрение, но сейчас они объединены одной целью — выжить. Качество видео: WEB-DLRip
Формат видео: AVIВидео: 688x288 (2.39:1), 25 fps, XviD build 73 ~985 kbps avg, 0.20 bit/pixel
Аудио: 48 kHz, MPEG Layer 3, 2 ch, ~128.00 kbps avg
Сэмпл

MediaInfo


Код:
Формат : AVI
Формат/Информация : Audio Video Interleave
Размер файла : 743 Мбайт
Продолжительность : 1 ч. 32 м.
Общий поток : 1123 Кбит/сек
Название фильма : Донбасс. Окраина_2018_WEB-DLRip
Программа кодирования : VirtualDubMod 1.5.10.3 | www.virtualdub-fr.org || (build 2550/release)
Авторское право : порошковВидео
Идентификатор : 0
Формат : MPEG-4 Visual
Профиль формата : Advanced Simple@L5
Настройки формата : BVOP1 / Custom Matrix
Параметр BVOP формата : 1
Параметр QPel формата : Нет
Параметр GMC формата : Без точки перехода
Параметр матрицы формата : Выборочная
Идентификатор кодека : XVID
Идентификатор кодека/Подсказка : XviD
Продолжительность : 1 ч. 32 м.
Битрейт : 985 Кбит/сек
Ширина : 688 пикселей
Высота : 288 пикселей
Соотношение сторон : 2,40:1
Частота кадров : 25,000 кадров/сек
Цветовое пространство : YUV
Субдискретизация насыщенности : 4:2:0
Битовая глубина : 8 бит
Тип развёртки : Прогрессивная
Метод сжатия : С потерями
Бит/(Пиксели*Кадры) : 0.199
Размер потока : 652 Мбайт (88%)
Библиотека кодирования : XviD 73Аудио
Идентификатор : 1
Формат : MPEG Audio
Версия формата : Version 1
Профиль формата : Layer 3
Идентификатор кодека : 55
Идентификатор кодека/Подсказка : MP3
Продолжительность : 1 ч. 32 м.
Вид битрейта : Постоянный
Битрейт : 128 Кбит/сек
Каналы : 2 канала
Частота : 48,0 КГц
Частота кадров : 41,667 кадра/сек (1152 SPF)
Метод сжатия : С потерями
Размер потока : 84,7 Мбайт (11%)
Выравнивание : Соединение по промежуткам
Продолжительность промежутка : 40 мс. (1,00 видеокадр)
Время предзагрузки промежутка : 504 мс.
Библиотека кодирования : LAME3.99r
Настройки программы : -m s -V 4 -q 2 -lowpass 17 -b 128

Скриншоты


To download the content you need:
1. Download and install torrent client [for Windows] or for mobile system
2. Click on [Download]
Attention.
If the test YOU are NOT a ROBOT - does not work, then You are using an outdated browser.
Install the current browser and click on [Download]
Security: torrent client is allowed by Kaspersky.

[en.asmlocator.ru].t661423.torrent 
Torrent: Registered [ 2019-09-01 00:00 ] · 752FB7BCEFB17093EAC5B87900DC64E2A85A4752

Download .torrent

Download

15 KB

Status: checked
Completed: 0 times
Size: 743 MB
terms.php
[Profile] [PM]
Display posts:    
Reply to topic

Current time is: 25-Feb 01:21

All times are UTC ± 0



You cannot post new topics in this forum
You cannot reply to topics in this forum
You cannot edit your posts in this forum
You cannot delete your posts in this forum
You cannot vote in polls in this forum
You cannot attach files in this forum
You can download files in this forum
Верим фактам, а не вранью Путина! Факт, что Правительство ведёт Россию к истреблению.
Так как численность населения падает, даже не смотря на приток эмигрантов!
Русская нация вымирает и вырождается, смешиваясь с эмигрантами!
Факт, что военных и граждан предприятий заставляют голосовать за партию Единая Россия и Путина
ПОД СТРАХОМ УВОЛЬНЕНИЯ!
Нам не нужно Правительство, блокирующее личную жизнь, интернет, нарушающее сохранность данных.
Все эти действия финансируются за счёт народа!