Рыбка по имени Нельзя / 8 серий (Александр Ленкин) [2011-2016, Беларусь, мультфильм, короткометражный, HDTV 1080i]

Reply to topic
DL-List and Torrent activity
Size:  1.86 GB   |    Registered:  10 months 20 days   |    Completed:  0 times

Seeder not seen: Never

 
   
 
 
Author Message

star21 ®

Gender: Female

Longevity: 4 years 8 months

Posts: 551945

Location: Екатеринбург

Post 17-Aug-2019 06:40

[Quote]

Рыбка по имени Нельзя / 8 серий Страна: Беларусь
Студия: Беларусьфильм
Жанр: мультфильм, короткометражный
Продолжительность: 00:06:30 х 8 серий-фильмов
Год выпуска: 2011-2016Перевод: не требуется
Русские субтитры: нетРежиссёр: Александр ЛенкинОписание: В семействе Золотистых карасей родился малыш. Любопытный и непоседливый, он с первого дня своей жизни стал доставлять родителям массу хлопот. В воспитании карасика самым актуальным словом стало «нельзя», поэтому папа с мамой его так и назвали...Дополнительная информация: запись с телеканала "Cinema HD".
Качество 6-й серии сильно отличается от остальных в худшую сторону, но именно так всегда транслировали. См. скриншоты и семпл.Семпл (1-5, 7-8 серии): http://sendfile.su/1509990
Семпл (6 серия): http://sendfile.su/1509991Качество: HDTV 1080i
Формат: TSВидео: AVC (H264), 1920x1080 (16:9), 25 fps, 4500 kbps
Аудио: MP2, 256 kbps, 2 channels, 48 kHz

MediaInfo

GeneralID                                       : 1 (0x1)Complete name                            : D:\Work\Video\Мультфильмы\Рыбка по имени Нельзя\Рыбка по имени Нельзя. Серия 1.tsFormat                                   : MPEG-TSFile size                                : 236 MiBDuration                                 : 6 min 30 sOverall bit rate mode                    : VariableOverall bit rate                         : 5 067 kb/sVideoID                                       : 1001 (0x3E9)Menu ID                                  : 1 (0x1)Format                                   : AVCFormat/Info                              : Advanced Video CodecFormat profile                           : High@L4Format settings                          : CABAC / 4 Ref FramesFormat settings, CABAC                   : YesFormat settings, RefFrames               : 4 framesFormat settings, GOP                     : M=3, N=30Codec ID                                 : 27Duration                                 : 6 min 30 sBit rate                                 : 4 558 kb/sWidth                                    : 1 920 pixelsHeight                                   : 1 080 pixelsDisplay aspect ratio                     : 16:9Frame rate                               : 25.000 FPSColor space                              : YUVChroma subsampling                       : 4:2:0Bit depth                                : 8 bitsScan type                                : InterlacedScan type, store method                  : Separated fieldsScan order                               : Top Field FirstBits/(Pixel*Frame)                       : 0.088Stream size                              : 212 MiB (90%)Color range                              : LimitedColor primaries                          : BT.709Transfer characteristics                 : BT.709Matrix coefficients                      : BT.709AudioID                                       : 1002 (0x3EA)Menu ID                                  : 1 (0x1)Format                                   : MPEG AudioFormat version                           : Version 1Format profile                           : Layer 2Codec ID                                 : 3Duration                                 : 6 min 30 sBit rate mode                            : ConstantBit rate                                 : 256 kb/sChannel(s)                               : 2 channelsSampling rate                            : 48.0 kHzFrame rate                               : 41.667 FPS (1152 SPF)Compression mode                         : LossyStream size                              : 11.9 MiB (5%)Language                                 : det

Скриншоты

Серии 1-5, 7-8

Серия 6

To download the content you need:
1. Download and install torrent client [for Windows] or for mobile system
2. Click on [Download]
Attention.
If the test YOU are NOT a ROBOT - does not work, then You are using an outdated browser.
Install the current browser and click on [Download]

Do not work with Yandex browser. Uploading files to them is erroneous.
Security: torrent client is allowed by Kaspersky.

[en.asmlocator.ru].t658156.torrent 
Torrent: Registered [ 2019-08-17 06:40 ] · 8631A3A1848B4E21A6388EB1DF38E015C4F371A9

Download .torrent

Download

20 KB

Status: checked
Completed: 0 times
Size: 1.86 GB
terms.php
[Profile] [PM]
Display posts:    
Reply to topic

Current time is: 06-Jul 10:55

All times are UTC ± 0



You cannot post new topics in this forum
You cannot reply to topics in this forum
You cannot edit your posts in this forum
You cannot delete your posts in this forum
You cannot vote in polls in this forum
You cannot attach files in this forum
You can download files in this forum
Верим фактам, а не вранью Путина! Факт, что Правительство ведёт Россию к истреблению.
Так как численность населения падает, даже не смотря на приток эмигрантов!
Русская нация вымирает и вырождается, смешиваясь с эмигрантами!
Факт, что военных и граждан предприятий заставляют голосовать за партию Единая Россия и Путина
ПОД СТРАХОМ УВОЛЬНЕНИЯ!
Нам не нужно Правительство, блокирующее личную жизнь, интернет, нарушающее сохранность данных.
Все эти действия финансируются за счёт народа!