(Folk) [CD] VA - Man Of Constant Sorrow And Other Timeless Mountain Ballads (Classic Recordings of the 1920\'s and 30\'s) - 2002, FLAC (image +.cue), lossless

Reply to topic
DL-List and Torrent activity
Size:  231 MB   |    Registered:  5 months 8 days   |    Completed:  1 time

Seeder not seen: 1 month 22 days

 
   
 
 
Author Message

star21 ®

Gender: Female

Longevity: 4 years 1 month

Posts: 551946

Location: Екатеринбург

Post 03-Jul-2019 01:55

[Quote]

Man Of Constant Sorrow And Other Timeless Mountain Ballads Жанр: Folk
Носитель: CD
Страна-производитель диска (релиза): USA
Год издания: 2002
Издатель (лейбл): Yazoo
Номер по каталогу: YAZOO3001
Страна исполнителя (группы): USA
Аудиокодек: FLAC (*.flac)
Тип рипа: image +.cue
Продолжительность: 01:01:18
Источник: Сеть
Наличие сканов в содержимом раздачи: да

Треклист

01. I Went To See My Sweetheart - Lewis Mcdaniel 2:27
02. Oh Molly Dear - B.F. Shelton 3:01
03. Willie Moore - Burnett & Rutherford 3:14
04. Lowe Bonnie - Jimmie Tarlton 3:22
05. Ommie Wise - Grayson & Whitter 3:11
06. In The Hills Of Roane County - The Blue Sky Boys 3:22
07. John Henry Blues - Earl Johnson 3:12
08. George Collins - Roy Harvey 2:51
09. John Hardy - Buell Woolbright 3:04
10. Man Of Constant Sorrow - Emry Arthur 3:22
11. Louisville Burglar - Hickory Nuts 2:48
12. Will The Weaver - Buell Woolbright 2:53
13. Darling Cora - B.F. Shelton 3:49
14. I've Always Been A Rambler - Grayson & Whitter 3:26
15. Pretty Little Miss Out In The Garden - Cousin Emmy 3:01
16. He Rambled - Charlie Poole 2:59
17. The Fate Of Ellen Smith - Green Bailey 2:40
18. Wreck Of The Old 97 - Ernest Stoneman 2:49
19. The Island Unkown - Part 1 - Eck Robertson 3:11
20. The Island Unkown - Part 2 - Eck Robertson 2:26

Лог создания рипа

Exact Audio Copy V0.99 prebeta 4 from 23. January 2008EAC extraction logfile from 7. July 2010, 11:36Various Artists / Man Of Constant Sorrow And Other Timeless Mountain BalladsUsed drive : Optiarc DVD+-RW AD-7200S Adapter: 0 ID: 1Read mode : SecureUtilize accurate stream : YesDefeat audio cache : YesMake use of C2 pointers : NoRead offset correction : 48Overread into Lead-In and Lead-Out : NoFill up missing offset samples with silence : YesDelete leading and trailing silent blocks : NoNull samples used in CRC calculations : YesUsed interface : Installed external ASPI interfaceUsed output format : User Defined EncoderSelected bitrate : 320 kBit/sQuality : HighAdd ID3 tag : NoCommand line compressor : C:\Program Files\FLAC\flac.exeAdditional command line options : -T "DATE=%y" -T "GENRE=%m" -8 -V %sTOC of the extracted CDTrack | Start | Length | Start sector | End sector––––––––––––––––––––––––––––-1 | 0:00.00 | 2:27.22 | 0 | 110462 | 2:27.22 | 3:01.60 | 11047 | 246813 | 5:29.07 | 3:14.44 | 24682 | 392754 | 8:43.51 | 3:22.34 | 39276 | 544595 | 12:06.10 | 3:11.21 | 54460 | 688056 | 15:17.31 | 3:22.14 | 68806 | 839697 | 18:39.45 | 3:12.70 | 83970 | 984398 | 21:52.40 | 2:50.73 | 98440 | 1112629 | 24:43.38 | 3:05.35 | 111263 | 12517210 | 27:48.73 | 3:21.74 | 125173 | 14032111 | 31:10.72 | 2:48.49 | 140322 | 15297012 | 33:59.46 | 2:53.38 | 152971 | 16598313 | 36:53.09 | 3:49.68 | 165984 | 18322614 | 40:43.02 | 3:25.74 | 183227 | 19867515 | 44:09.01 | 3:02.15 | 198676 | 21234016 | 47:11.16 | 2:59.19 | 212341 | 22578417 | 50:10.35 | 2:40.47 | 225785 | 23783118 | 52:51.07 | 2:49.58 | 237832 | 25056419 | 55:40.65 | 3:11.14 | 250565 | 26490320 | 58:52.04 | 2:26.35 | 264904 | 275888Range status and errorsSelected rangeFilename D:\Downloads\torrents\Man Of Constant Sorrow And Other Timeless Mountain Ballads\Various Artists - Man Of Constant Sorrow And Other Timeless Mountain Ballads.wavPeak level 70.7 %Range quality 100.0 %Test CRC 9DF6AA94Copy CRC 9DF6AA94Copy OKNo errors occurredAccurateRip summaryTrack 1 accurately ripped (confidence 7) [EA8E85A4]Track 2 accurately ripped (confidence 7) [47E498E4]Track 3 accurately ripped (confidence 7) [DF4C15EC]Track 4 accurately ripped (confidence 7) [60D6C66B]Track 5 accurately ripped (confidence 7) [0117EC8B]Track 6 accurately ripped (confidence 7) [DF43D529]Track 7 accurately ripped (confidence 7) [D0C74529]Track 8 accurately ripped (confidence 7) [701C26C1]Track 9 accurately ripped (confidence 7) [1D470BB2]Track 10 accurately ripped (confidence 7) [399A9C90]Track 11 accurately ripped (confidence 7) [FB1E0264]Track 12 accurately ripped (confidence 7) [21E73715]Track 13 accurately ripped (confidence 7) [A7068E49]Track 14 accurately ripped (confidence 7) [6A6E0562]Track 15 accurately ripped (confidence 7) [5EFED9E7]Track 16 accurately ripped (confidence 7) [937C447C]Track 17 accurately ripped (confidence 7) [02D85E5C]Track 18 accurately ripped (confidence 7) [81A436A1]Track 19 accurately ripped (confidence 7) [2CF46EC5]Track 20 accurately ripped (confidence 7) [DBDFBF06]All tracks accurately rippedEnd of status report

Содержание индексной карты (.CUE)

REM GENRE FolkREM DATE 2002REM DISCID F40E5E14REM COMMENT "ExactAudioCopy v0.99pb4"PERFORMER "Various Artists"TITLE "Man Of Constant Sorrow And Other Timeless Mountain Ballads"FILE "Various Artists - Man Of Constant Sorrow And Other Timeless Mountain Ballads.flac" WAVE  TRACK 01 AUDIO    TITLE "I Went To See My Sweetheart"    PERFORMER "Lewis McDaniel And Walter Smith"    INDEX 01 00:00:00  TRACK 02 AUDIO    TITLE "Oh Molly Dear"    PERFORMER "B.F. Shelton"    INDEX 01 02:27:22  TRACK 03 AUDIO    TITLE "Willie Moore"    PERFORMER "Burnett And Rutherford"    INDEX 01 05:29:07  TRACK 04 AUDIO    TITLE "Lowe Bonnie"    PERFORMER "Jimmie Tarlton"    INDEX 01 08:43:51  TRACK 05 AUDIO    TITLE "Ommie Wise"    PERFORMER "G.B. Grayson"    INDEX 01 12:06:10  TRACK 06 AUDIO    TITLE "In The Hills Of Roane County"    PERFORMER "Blue Sky Boys"    INDEX 01 15:17:31  TRACK 07 AUDIO    TITLE "John Henry Blues"    PERFORMER "Earl Johnson And His Dixie Entertainers"    INDEX 01 18:39:45  TRACK 08 AUDIO    TITLE "George Collins"    PERFORMER "Roy Harvey And North Carolina Ramblers"    INDEX 01 21:52:40  TRACK 09 AUDIO    TITLE "John Hardy"    PERFORMER "Buell Kazee"    INDEX 01 24:43:38  TRACK 10 AUDIO    TITLE "Man Of Constant Sorrow"    PERFORMER "Emry Arthur"    INDEX 01 27:48:73  TRACK 11 AUDIO    TITLE "Louisville Burglar"    PERFORMER "Hickory Nuts"    INDEX 01 31:10:72  TRACK 12 AUDIO    TITLE "Will The Weaver"    PERFORMER "Parker And Woolbright"    INDEX 01 33:59:46  TRACK 13 AUDIO    TITLE "Darling Cora"    PERFORMER "B.F. Shelton"    INDEX 01 36:53:09  TRACK 14 AUDIO    TITLE "I've Always Been A Rambler"    PERFORMER "Grayson And Whitter"    INDEX 01 40:43:02  TRACK 15 AUDIO    TITLE "Pretty Little Miss Out In The Garden"    PERFORMER "Cousin Emmy"    INDEX 01 44:09:01  TRACK 16 AUDIO    TITLE "He Rambled"    PERFORMER "Charlie Poole And North Carolina Ramblers"    INDEX 01 47:11:16  TRACK 17 AUDIO    TITLE "The Fate Of Ellen Smith"    PERFORMER "Green Bailey"    INDEX 01 50:10:35  TRACK 18 AUDIO    TITLE "Wreck Of The Old 97"    PERFORMER "Ernest Stoneman And Kahle Brewer"    INDEX 01 52:51:07  TRACK 19 AUDIO    TITLE "The Island Unknown Part 1"    PERFORMER "Eck Robertson And Family"    INDEX 01 55:40:65  TRACK 20 AUDIO    TITLE "The Island Unknown Part 2"    PERFORMER "Eck Robertson And Family"    INDEX 01 58:52:04

To download the content you need:
1. Download and install torrent client [for Windows] or for mobile system
2. Click on [Download]
Attention.
If the test YOU are NOT a ROBOT - does not work, then You are using an outdated browser.
Install the current browser and click on [Download]
Security: torrent client is allowed by Kaspersky.

[en.asmlocator.ru].t648119.torrent 
Torrent: Registered [ 2019-07-03 01:55 ] · 2DDC6C8E65313524CDF435D8EC8F1EA26D891D57

Download .torrent

Download

19 KB

Status: checked
Completed: 1 times
Size: 231 MB
terms.php
[Profile] [PM]
Display posts:    
Reply to topic

Current time is: 11-Dec 05:24

All times are UTC ± 0



You cannot post new topics in this forum
You cannot reply to topics in this forum
You cannot edit your posts in this forum
You cannot delete your posts in this forum
You cannot vote in polls in this forum
You cannot attach files in this forum
You can download files in this forum
Верим фактам, а не вранью Путина! Факт, что Правительство ведёт Россию к истреблению.
Так как численность населения падает, даже не смотря на приток эмигрантов!
Русская нация вымирает и вырождается, смешиваясь с эмигрантами!
Факт, что военных и граждан предприятий заставляют голосовать за партию Единая Россия и Путина
ПОД СТРАХОМ УВОЛЬНЕНИЯ!
Нам не нужно Правительство, блокирующее личную жизнь, интернет, нарушающее сохранность данных.
Все эти действия финансируются за счёт народа!