(Country) [CD] VA - Time Life - Classic Country 1965-1969 - 1998 (2CD), FLAC (tracks+.cue), lossless

Reply to topic
DL-List and Torrent activity
Size:  460 MB   |    Registered:  8 months 16 days   |    Completed:  0 times

Seeder not seen: Never

 
   
 
 
Author Message

star21 ®

Gender: Female

Longevity: 4 years 1 month

Posts: 551946

Location: Екатеринбург

Post 25-Mar-2019 12:40

[Quote]

Classic Country 1965-1969 Жанр: Country
Носитель: CD
Страна-производитель диска (релиза): US
Год издания: 1998
Издатель (лейбл): Time Life Music
Номер по каталогу: TCD808
Аудиокодек: FLAC (*.flac)
Тип рипа: tracks+.cue
Битрейт аудио: lossless
Продолжительность: 00
Источник: локальная сеть
Наличие сканов в содержимом раздачи: да
Треклист:

CD1 (00:38:43)

1-1 –George Jones - Walk Through This World With Me
1-2 –Johnny Cash with June Carter- Jackson
1-3 –The Statler Brothers -Flowers On The Wall
1-4 –Roger Miller -King Of The Road
1-5 –Merle Haggard -Okie From Muskogee
1-6 –Kenny Rogers & The First Edition -Ruby, Don't Take Your Love To Town
1-7 –Johnny Cash -Daddy Sang Bass
1-8 –Elvis Presley with The Jordanaires- Crying In The Chapel
1-9 –Eddy Arnold -Make The World Go Away
1-10 –Waylon Jennings -Only Daddy That'll Walk The Line
1-11 –Loretta Lynn -Don't Come Home A-Drinkin' (With Lovin' On Your Mind)
1-12 –Jeannie C. Riley -Harper Valley P.T.A.
1-13 –Henson Cargill -Skip A Rope
1-14 –Merle Haggard -Mama Tried
1-15 –Glen Campbell -Wichita Lineman

Лог создания рипа

EAC extraction logfile from 30. June 2005, 15:55 for CDVarious / Time-Life - Classic Country 1965-1969 (Disc 1)Used drive  : PLEXTOR DVDR   PX-504A   Adapter: 0  ID: 0Read mode   : Secure with C2, accurate stream, NO disable cacheRead offset correction : 48Overread into Lead-In and Lead-Out : NoUsed output format : Internal WAV Routines                     44.100 Hz; 16 Bit; StereoOther options      :    Fill up missing offset samples with silence : Yes    Delete leading and trailing silent blocks : No    Native Win32 interface for Win NT & 2000Track  1     Filename C:\My Music\Time-Life - Classic Country 1965-1969 (Disc 1)\01 - George Jones - Walk Through The World With Me.wav     Pre-gap length  0:00:02.00     Peak level 100.0 %     Track quality 100.0 %     Test CRC 0500EA74     Copy CRC 0500EA74     Copy OKTrack  2     Filename C:\My Music\Time-Life - Classic Country 1965-1969 (Disc 1)\02 - Johnny Cash with June Carter - Jackson.wav     Pre-gap length  0:00:02.40     Peak level 87.7 %     Track quality 100.0 %     Test CRC E4AAC944     Copy CRC E4AAC944     Copy OKTrack  3     Filename C:\My Music\Time-Life - Classic Country 1965-1969 (Disc 1)\03 - The Statler Brothers - Flowers On The Wall.wav     Pre-gap length  0:00:02.40     Peak level 91.7 %     Track quality 100.0 %     Test CRC 28A49852     Copy CRC 28A49852     Copy OKTrack  4     Filename C:\My Music\Time-Life - Classic Country 1965-1969 (Disc 1)\04 - Roger Miller - King Of The Road.wav     Pre-gap length  0:00:02.40     Peak level 78.0 %     Track quality 100.0 %     Test CRC 18E63F3A     Copy CRC 18E63F3A     Copy OKTrack  5     Filename C:\My Music\Time-Life - Classic Country 1965-1969 (Disc 1)\05 - Merle Haggard - Okie From Muskogee.wav     Pre-gap length  0:00:02.40     Peak level 77.6 %     Track quality 100.0 %     Test CRC 2D766DFD     Copy CRC 2D766DFD     Copy OKTrack  6     Filename C:\My Music\Time-Life - Classic Country 1965-1969 (Disc 1)\06 - Kenny Rogers & The First Edition - Ruby, Don't Take Your Love To Town.wav     Pre-gap length  0:00:02.40     Peak level 91.7 %     Track quality 100.0 %     Test CRC 3324A60A     Copy CRC 3324A60A     Copy OKTrack  7     Filename C:\My Music\Time-Life - Classic Country 1965-1969 (Disc 1)\07 - Johnny Cash - Daddy Sang Bass.wav     Pre-gap length  0:00:02.40     Peak level 96.0 %     Track quality 100.0 %     Test CRC FE9BEFD3     Copy CRC FE9BEFD3     Copy OKTrack  8     Filename C:\My Music\Time-Life - Classic Country 1965-1969 (Disc 1)\08 - Elvis Presley With The Jordanaires - Crying In the Chapel.wav     Pre-gap length  0:00:02.40     Peak level 79.2 %     Track quality 100.0 %     Test CRC A0435F2D     Copy CRC A0435F2D     Copy OKTrack  9     Filename C:\My Music\Time-Life - Classic Country 1965-1969 (Disc 1)\09 - Eddy Arnold - Make The World Go Away.wav     Pre-gap length  0:00:01.40     Peak level 66.4 %     Track quality 100.0 %     Test CRC 92A765CF     Copy CRC 92A765CF     Copy OKTrack 10     Filename C:\My Music\Time-Life - Classic Country 1965-1969 (Disc 1)\10 - Waylon Jennings - Only Daddy That'll Walk The Line.wav     Pre-gap length  0:00:02.40     Peak level 65.8 %     Track quality 100.0 %     Test CRC B2FA98E3     Copy CRC B2FA98E3     Copy OKTrack 11     Filename C:\My Music\Time-Life - Classic Country 1965-1969 (Disc 1)\11 - Loretta Lynn - Don't Come Home A-Drinkin' (With Lovin' On Your Mind).wav     Pre-gap length  0:00:02.40     Peak level 67.0 %     Track quality 100.0 %     Test CRC 773B4639     Copy CRC 773B4639     Copy OKTrack 12     Filename C:\My Music\Time-Life - Classic Country 1965-1969 (Disc 1)\12 - Jeannie C. Riley - Harper Valley P.T.A..wav     Pre-gap length  0:00:02.40     Peak level 100.0 %     Track quality 99.8 %     Test CRC BCDB49ED     Copy CRC BCDB49ED     Copy OKTrack 13     Filename C:\My Music\Time-Life - Classic Country 1965-1969 (Disc 1)\13 - Henson Cargill - Skip A Rope.wav     Pre-gap length  0:00:02.40     Peak level 100.0 %     Track quality 100.0 %     Test CRC A8E3E701     Copy CRC A8E3E701     Copy OKTrack 14     Filename C:\My Music\Time-Life - Classic Country 1965-1969 (Disc 1)\14 - Merle Haggard - Mama Tried.wav     Pre-gap length  0:00:02.40     Peak level 81.8 %     Track quality 100.0 %     Test CRC 5B54F223     Copy CRC 5B54F223     Copy OKTrack 15     Filename C:\My Music\Time-Life - Classic Country 1965-1969 (Disc 1)\15 - Glen Campbell - Wichita Lineman.wav     Pre-gap length  0:00:02.40     Peak level 97.3 %     Track quality 100.0 %     Test CRC 8663A359     Copy CRC 8663A359     Copy OKNo errors occuredEnd of status report

Содержание индексной карты (.CUE)

REM GENRE CountryREM DATE 1998REM DISCID CB091B0FREM COMMENT "ExactAudioCopy v0.95b2"PERFORMER "Various"TITLE "Time-Life - Classic Country 1965-1969 (Disc 1)"FILE "01 - George Jones - Walk Through The World With Me.wav" WAVE  TRACK 01 AUDIO    TITLE "Walk Through The World With Me"    PERFORMER "George Jones"    INDEX 01 00:00:00  TRACK 02 AUDIO    TITLE "Jackson"    PERFORMER "Johnny Cash with June Carter"    INDEX 00 02:16:12FILE "02 - Johnny Cash with June Carter - Jackson.wav" WAVE    INDEX 01 00:00:00  TRACK 03 AUDIO    TITLE "Flowers On The Wall"    PERFORMER "The Statler Brothers"    INDEX 00 02:44:38FILE "03 - The Statler Brothers - Flowers On The Wall.wav" WAVE    INDEX 01 00:00:00  TRACK 04 AUDIO    TITLE "King Of The Road"    PERFORMER "Roger Miller"    INDEX 00 02:19:30FILE "04 - Roger Miller - King Of The Road.wav" WAVE    INDEX 01 00:00:00  TRACK 05 AUDIO    TITLE "Okie From Muskogee"    PERFORMER "Merle Haggard"    INDEX 00 02:25:12FILE "05 - Merle Haggard - Okie From Muskogee.wav" WAVE    INDEX 01 00:00:00  TRACK 06 AUDIO    TITLE "Ruby, Don't Take Your Love To Town"    PERFORMER "Kenny Rogers & The First Edition"    INDEX 00 02:42:23FILE "06 - Kenny Rogers & The First Edition - Ruby, Don't Take Your Love To Town.wav" WAVE    INDEX 01 00:00:00  TRACK 07 AUDIO    TITLE "Daddy Sang Bass"    PERFORMER "Johnny Cash"    INDEX 00 02:54:22FILE "07 - Johnny Cash - Daddy Sang Bass.wav" WAVE    INDEX 01 00:00:00  TRACK 08 AUDIO    TITLE "Crying In the Chapel"    PERFORMER "Elvis Presley With The Jordanaires"    INDEX 00 02:19:33FILE "08 - Elvis Presley With The Jordanaires - Crying In the Chapel.wav" WAVE    INDEX 01 00:00:00  TRACK 09 AUDIO    TITLE "Make The World Go Away"    PERFORMER "Eddy Arnold"    INDEX 00 02:25:00FILE "09 - Eddy Arnold - Make The World Go Away.wav" WAVE    INDEX 01 00:00:00  TRACK 10 AUDIO    TITLE "Only Daddy That'll Walk The Line"    PERFORMER "Waylon Jennings"    INDEX 00 02:38:00FILE "10 - Waylon Jennings - Only Daddy That'll Walk The Line.wav" WAVE    INDEX 01 00:00:00  TRACK 11 AUDIO    TITLE "Don't Come Home A-Drinkin' (With Lovin' On Your Mind)"    PERFORMER "Loretta Lynn"    INDEX 00 02:20:55FILE "11 - Loretta Lynn - Don't Come Home A-Drinkin' (With Lovin' On Your Mind).wav" WAVE    INDEX 01 00:00:00  TRACK 12 AUDIO    TITLE "Harper Valley P.T.A."    PERFORMER "Jeannie C. Riley"    INDEX 00 02:07:10FILE "12 - Jeannie C. Riley - Harper Valley P.T.A..wav" WAVE    INDEX 01 00:00:00  TRACK 13 AUDIO    TITLE "Skip A Rope"    PERFORMER "Henson Cargill"    INDEX 00 03:14:07FILE "13 - Henson Cargill - Skip A Rope.wav" WAVE    INDEX 01 00:00:00  TRACK 14 AUDIO    TITLE "Mama Tried"    PERFORMER "Merle Haggard"    INDEX 00 02:35:73FILE "14 - Merle Haggard - Mama Tried.wav" WAVE    INDEX 01 00:00:00  TRACK 15 AUDIO    TITLE "Wichita Lineman"    PERFORMER "Glen Campbell"    INDEX 00 02:10:50FILE "15 - Glen Campbell - Wichita Lineman.wav" WAVE    INDEX 01 00:00:00

CD2 (00:43:26)

2-1 –Tammy Wynette -Stand By Your Man
2-2 –David Houston- Almost Persuaded
2-3 –Buck Owens- Cryin' Time
2-4 –Sonny James -Take Good Care Of Her
2-5 –Marty Robbins -I Walk Alone
2-6 –Jim Reeves -Is It Really Over?
2-7 –Jack Greene- There Goes My Everything
2-8 –Conway Twitty- Next In Line
2-9 –Porter Wagoner And Dolly Parton- Just Someone I Used To Know
2-10 –Porter Wagoner- Green, Green Grass Of Home
2-11 –Jim Reeves- Blue Side Of Lonesome
2-12 –Elvis Presley -Suspicious Minds
2-13 –Charley Pride -All I Have To Offer You (Is Me)
2-14 –Glen Campbell- Galveston
2-15 –Bobby Goldsboro -Honey

Лог создания рипа

EAC extraction logfile from 30. June 2005, 16:08 for CDVarious / Time-Life - Classic Country 1965-1969 (Disc 2)Used drive  : PLEXTOR DVDR   PX-504A   Adapter: 0  ID: 0Read mode   : Secure with C2, accurate stream, NO disable cacheRead offset correction : 48Overread into Lead-In and Lead-Out : NoUsed output format : Internal WAV Routines                     44.100 Hz; 16 Bit; StereoOther options      :    Fill up missing offset samples with silence : Yes    Delete leading and trailing silent blocks : No    Native Win32 interface for Win NT & 2000Track  1     Filename C:\My Music\Time-Life - Classic Country 1965-1969 (Disc 2)\01 - Tammy Wynette - Stand By Your Man.wav     Pre-gap length  0:00:02.00     Peak level 94.5 %     Track quality 100.0 %     Test CRC 33E1F2EB     Copy CRC 33E1F2EB     Copy OKTrack  2     Filename C:\My Music\Time-Life - Classic Country 1965-1969 (Disc 2)\02 - David Houston - Almost Persuaded.wav     Pre-gap length  0:00:02.40     Peak level 78.2 %     Track quality 100.0 %     Test CRC C8DE39BD     Copy CRC C8DE39BD     Copy OKTrack  3     Filename C:\My Music\Time-Life - Classic Country 1965-1969 (Disc 2)\03 - Buck Owens - Cryin' Time.wav     Pre-gap length  0:00:02.40     Peak level 90.3 %     Track quality 100.0 %     Test CRC 18B3CC6D     Copy CRC 18B3CC6D     Copy OKTrack  4     Filename C:\My Music\Time-Life - Classic Country 1965-1969 (Disc 2)\04 - Sonny James - Take Good Care Of Her.wav     Pre-gap length  0:00:02.43     Peak level 69.8 %     Track quality 100.0 %     Test CRC 86E3851A     Copy CRC 86E3851A     Copy OKTrack  5     Filename C:\My Music\Time-Life - Classic Country 1965-1969 (Disc 2)\05 - Marty Robbins - I Walk Alone.wav     Pre-gap length  0:00:02.42     Peak level 81.2 %     Track quality 100.0 %     Test CRC C2F6B18D     Copy CRC C2F6B18D     Copy OKTrack  6     Filename C:\My Music\Time-Life - Classic Country 1965-1969 (Disc 2)\06 - Jim Reeves - Is It Really Over.wav     Pre-gap length  0:00:02.40     Peak level 78.5 %     Track quality 100.0 %     Test CRC 088F4492     Copy CRC 088F4492     Copy OKTrack  7     Filename C:\My Music\Time-Life - Classic Country 1965-1969 (Disc 2)\07 - Jack Greene - There Goes My Everything.wav     Pre-gap length  0:00:02.40     Peak level 72.1 %     Track quality 100.0 %     Test CRC 5BC10708     Copy CRC 5BC10708     Copy OKTrack  8     Filename C:\My Music\Time-Life - Classic Country 1965-1969 (Disc 2)\08 - Conway Twitty - Next In Line.wav     Pre-gap length  0:00:02.40     Peak level 87.0 %     Track quality 100.0 %     Test CRC 30A0C136     Copy CRC 30A0C136     Copy OKTrack  9     Filename C:\My Music\Time-Life - Classic Country 1965-1969 (Disc 2)\09 - Porter Wagoner and Dolly Parton - Just Someone I Used To Know.wav     Pre-gap length  0:00:02.40     Peak level 98.0 %     Track quality 100.0 %     Test CRC 89C75D25     Copy CRC 89C75D25     Copy OKTrack 10     Filename C:\My Music\Time-Life - Classic Country 1965-1969 (Disc 2)\10 - Porter Wagoner - Green, Green Grass Of Home.wav     Pre-gap length  0:00:02.40     Peak level 74.5 %     Track quality 99.8 %     Test CRC 60F1F411     Copy CRC 60F1F411     Copy OKTrack 11     Filename C:\My Music\Time-Life - Classic Country 1965-1969 (Disc 2)\11 - Jim Reeves - Blue Side Of Lonesome.wav     Pre-gap length  0:00:02.43     Peak level 76.9 %     Track quality 100.0 %     Test CRC EAC8308F     Copy CRC EAC8308F     Copy OKTrack 12     Filename C:\My Music\Time-Life - Classic Country 1965-1969 (Disc 2)\12 - Elvis Presley - Suspicious Minds.wav     Pre-gap length  0:00:02.40     Peak level 100.0 %     Track quality 100.0 %     Test CRC 9B80AAF9     Copy CRC 9B80AAF9     Copy OKTrack 13     Filename C:\My Music\Time-Life - Classic Country 1965-1969 (Disc 2)\13 - Charley Pride - All I Have To Offer You (Is Me).wav     Pre-gap length  0:00:02.43     Peak level 95.4 %     Track quality 100.0 %     Test CRC DB2C316C     Copy CRC DB2C316C     Copy OKTrack 14     Filename C:\My Music\Time-Life - Classic Country 1965-1969 (Disc 2)\14 - Glen Campbell - Galveston.wav     Pre-gap length  0:00:02.40     Peak level 78.5 %     Track quality 100.0 %     Test CRC B112DD83     Copy CRC B112DD83     Copy OKTrack 15     Filename C:\My Music\Time-Life - Classic Country 1965-1969 (Disc 2)\15 - Bobby Goldsboro - Honey.wav     Pre-gap length  0:00:02.40     Peak level 89.1 %     Track quality 100.0 %     Test CRC 3176597D     Copy CRC 3176597D     Copy OKNo errors occuredEnd of status report

Содержание индексной карты (.CUE)

REM GENRE CountryREM DATE 1998REM DISCID BB0A340FREM COMMENT "ExactAudioCopy v0.95b2"PERFORMER "Various"TITLE "Time-Life - Classic Country 1965-1969 (Disc 2)"FILE "01 - Tammy Wynette - Stand By Your Man.wav" WAVE  TRACK 01 AUDIO    TITLE "Stand by Your Man"    PERFORMER "Tammy Wynette"    INDEX 01 00:00:00  TRACK 02 AUDIO    TITLE "Almost Persuaded"    PERFORMER "David Houston"    INDEX 00 02:40:05FILE "02 - David Houston - Almost Persuaded.wav" WAVE    INDEX 01 00:00:00  TRACK 03 AUDIO    TITLE "Cryin' Time"    PERFORMER "Buck Owens"    INDEX 00 02:53:55FILE "03 - Buck Owens - Cryin' Time.wav" WAVE    INDEX 01 00:00:00  TRACK 04 AUDIO    TITLE "Take Good Care Of Her"    PERFORMER "Sonny James"    INDEX 00 02:28:67FILE "04 - Sonny James - Take Good Care Of Her.wav" WAVE    INDEX 01 00:00:00  TRACK 05 AUDIO    TITLE "I Walk Alone"    PERFORMER "Marty Robbins"    INDEX 00 02:27:70FILE "05 - Marty Robbins - I Walk Alone.wav" WAVE    INDEX 01 00:00:00  TRACK 06 AUDIO    TITLE "Is It Really Over?"    PERFORMER "Jim Reeves"    INDEX 00 03:18:23FILE "06 - Jim Reeves - Is It Really Over.wav" WAVE    INDEX 01 00:00:00  TRACK 07 AUDIO    TITLE "There Goes My Everything"    PERFORMER "Jack Greene"    INDEX 00 02:13:32FILE "07 - Jack Greene - There Goes My Everything.wav" WAVE    INDEX 01 00:00:00  TRACK 08 AUDIO    TITLE "Next In Line"    PERFORMER "Conway Twitty"    INDEX 00 02:32:70FILE "08 - Conway Twitty - Next In Line.wav" WAVE    INDEX 01 00:00:00  TRACK 09 AUDIO    TITLE "Just Someone I Used To Know"    PERFORMER "Porter Wagoner and Dolly Parton"    INDEX 00 02:49:40FILE "09 - Porter Wagoner and Dolly Parton - Just Someone I Used To Know.wav" WAVE    INDEX 01 00:00:00  TRACK 10 AUDIO    TITLE "Green, Green Grass Of Home"    PERFORMER "Porter Wagoner"    INDEX 00 02:21:48FILE "10 - Porter Wagoner - Green, Green Grass Of Home.wav" WAVE    INDEX 01 00:00:00  TRACK 11 AUDIO    TITLE "Blue Side Of Lonesome"    PERFORMER "Jim Reeves"    INDEX 00 02:22:32FILE "11 - Jim Reeves - Blue Side Of Lonesome.wav" WAVE    INDEX 01 00:00:00  TRACK 12 AUDIO    TITLE "Suspicious Minds"    PERFORMER "Elvis Presley"    INDEX 00 02:44:55FILE "12 - Elvis Presley - Suspicious Minds.wav" WAVE    INDEX 01 00:00:00  TRACK 13 AUDIO    TITLE "All I Have To Offer You (Is Me)"    PERFORMER "Charley Pride"    INDEX 00 04:20:47FILE "13 - Charley Pride - All I Have To Offer You (Is Me).wav" WAVE    INDEX 01 00:00:00  TRACK 14 AUDIO    TITLE "Galveston"    PERFORMER "Glen Campbell"    INDEX 00 03:01:35FILE "14 - Glen Campbell - Galveston.wav" WAVE    INDEX 01 00:00:00  TRACK 15 AUDIO    TITLE "Honey"    PERFORMER "Bobby Goldsboro"    INDEX 00 02:40:02FILE "15 - Bobby Goldsboro - Honey.wav" WAVE    INDEX 01 00:00:00

To download the content you need:
1. Download and install torrent client [for Windows] or for mobile system
2. Click on [Download]
Attention.
If the test YOU are NOT a ROBOT - does not work, then You are using an outdated browser.
Install the current browser and click on [Download]
Security: torrent client is allowed by Kaspersky.

[en.asmlocator.ru].t622974.torrent 
Torrent: Registered [ 2019-03-25 12:40 ] · 5C02EBCC0ABB14ACFB78FA04B014EF74A1594B03

Download .torrent

Download

22 KB

Status: checked
Completed: 0 times
Size: 460 MB
terms.php
[Profile] [PM]
Display posts:    
Reply to topic

Current time is: 11-Dec 05:22

All times are UTC ± 0



You cannot post new topics in this forum
You cannot reply to topics in this forum
You cannot edit your posts in this forum
You cannot delete your posts in this forum
You cannot vote in polls in this forum
You cannot attach files in this forum
You can download files in this forum
Верим фактам, а не вранью Путина! Факт, что Правительство ведёт Россию к истреблению.
Так как численность населения падает, даже не смотря на приток эмигрантов!
Русская нация вымирает и вырождается, смешиваясь с эмигрантами!
Факт, что военных и граждан предприятий заставляют голосовать за партию Единая Россия и Путина
ПОД СТРАХОМ УВОЛЬНЕНИЯ!
Нам не нужно Правительство, блокирующее личную жизнь, интернет, нарушающее сохранность данных.
Все эти действия финансируются за счёт народа!