Карибский кризис. Тайный связной (Сергей Мерзляков) [2018, Документальный, разведка, история, SATRip]

Reply to topic
DL-List and Torrent activity
Size:  543 MB   |    Registered:  10 months 9 days   |    Completed:  0 times

Seeder not seen: Never

 
   
 
 
Author Message

star21 ®

Gender: Female

Longevity: 4 years 1 month

Posts: 551946

Location: Екатеринбург

Post 01-Feb-2019 09:46

[Quote]

Карибский кризис. Тайный связной Дата/Год выпуска: 2018
Страна: Россия, ОАО «ТРК ВС РФ «ЗВЕЗДА»
Жанр: Документальный, разведка, история
Продолжительность: 00:37:54
Перевод: Не требуется
Режиссер: Сергей МерзляковТелеканал: ЗВЕЗДАОписание: 27 октября 1962 года в воздух поднялись 85 американских стратегических бомбардировщиков с ядерными боеприпасами на борту. 57 из них отправились в сторону СССР. Межконтинентальные баллистические ракеты НАТО, развернутые в Англии, Италии и Турции, приготовились к удару по советским городам. На командных пунктах в напряжении замерли боевые расчеты. До уничтожения СССР оставался всего один шаг - президент США должен был отдать приказ на уничтожение мирных советских городов. И Джон Кеннеди отдал приказ воздушным судам вернуться на базы. Это стало полной неожиданностью для западных военачальников. Никто не знал, что президент США принял это решение после консультации с... Кремлем. Через русского связного с позывным «Марк», о котором не было известно ни в ЦРУ, ни в Белом доме. Более того, о нем не знали и в советском посольстве. Кем был этот человек? И кто выбрал его для негласных контактов между лидерами двух мировых держав, едва не уничтоживших друг друга?Доп. информация: Авторство релиза - alf62
качество: SATRip
формат: AVI
Видео: 720x400 (1.80:1), 25 fps, XviD build 73 ~1799 kbps avg, 0.25 bit/pixel
Аудио: 48 kHz, AC3 Dolby Digital, 2/0 (L,R) ch, ~192.00 kbps avg

MediaInfo

ОбщееПолное имя                               : D:\Запись\Карибский кризис. Тайный связной\Карибский.кризис.Тайный.связной.2018.XviD.SATRip.alf62.aviФормат                                   : AVIФормат/Информация                        : Audio Video InterleaveРазмер файла                             : 543 МбайтПродолжительность                        : 37 м.Общий поток                              : 2001 Кбит/секПрограмма кодирования                    : VirtualDubMod 1.5.10.3 | www.virtualdub-fr.org || (build 2550/release)Библиотека кодирования                   : VirtualDubMod build 2550/releaseВидеоИдентификатор                            : 0Формат                                   : MPEG-4 VisualПрофиль формата                          : Advanced Simple@L5Параметр BVOP формата                    : 2Параметр QPel формата                    : НетПараметр GMC формата                     : Без точки переходаПараметр матрицы формата                 : Default (MPEG)Идентификатор кодека                     : XVIDИдентификатор кодека/Подсказка           : XviDПродолжительность                        : 37 м.Битрейт                                  : 1800 Кбит/секШирина                                   : 720 пикселейВысота                                   : 400 пикселейСоотношение сторон                       : 16:9Частота кадров                           : 25,000 кадров/секЦветовое пространство                    : YUVСубдискретизация насыщенности            : 4:2:0Битовая глубина                          : 8 битТип развёртки                            : ПрогрессивнаяМетод сжатия                             : С потерямиБит/(Пиксели*Кадры)                      : 0.250Размер потока                            : 488 Мбайт (90%)Библиотека кодирования                   : XviD 73АудиоИдентификатор                            : 1Формат                                   : AC-3Формат/Информация                        : Audio Coding 3Расширение режима                        : CM (complete main)Параметр Endianness формата              : BigИдентификатор кодека                     : 2000Продолжительность                        : 37 м.Вид битрейта                             : ПостоянныйБитрейт                                  : 192 Кбит/секКаналы                                   : 2 каналаРасположение каналов                     : Front: L RЧастота                                  : 48,0 КГцЧастота кадров                           : 31,250 кадров/сек (1536 spf)Метод сжатия                             : С потерямиРазмер потока                            : 52,1 Мбайт (10%)Выравнивание                             : Разделение по промежуткамПродолжительность промежутка             : 40  мс. (1,00 видеокадр)Время предзагрузки промежутка            : 500  мс.

To download the content you need:
1. Download and install torrent client [for Windows] or for mobile system
2. Click on [Download]
Attention.
If the test YOU are NOT a ROBOT - does not work, then You are using an outdated browser.
Install the current browser and click on [Download]
Security: torrent client is allowed by Kaspersky.

[en.asmlocator.ru].t604378.torrent 
Torrent: Registered [ 2019-02-01 09:45 ] · D4E26FC1D587FAE9BEC01DDF4884D9E498AB43FD

Download .torrent

Download

11 KB

Status: checked
Completed: 0 times
Size: 543 MB
terms.php
[Profile] [PM]
Display posts:    
Reply to topic

Current time is: 11-Dec 06:04

All times are UTC ± 0



You cannot post new topics in this forum
You cannot reply to topics in this forum
You cannot edit your posts in this forum
You cannot delete your posts in this forum
You cannot vote in polls in this forum
You cannot attach files in this forum
You can download files in this forum
Верим фактам, а не вранью Путина! Факт, что Правительство ведёт Россию к истреблению.
Так как численность населения падает, даже не смотря на приток эмигрантов!
Русская нация вымирает и вырождается, смешиваясь с эмигрантами!
Факт, что военных и граждан предприятий заставляют голосовать за партию Единая Россия и Путина
ПОД СТРАХОМ УВОЛЬНЕНИЯ!
Нам не нужно Правительство, блокирующее личную жизнь, интернет, нарушающее сохранность данных.
Все эти действия финансируются за счёт народа!