Формула Русской Революции. 1917 / Серии: 5 из 5 (Михаил Кузовенков) [2018, Документальный, история, DVB]

Reply to topic
DL-List and Torrent activity
Size:  2.44 GB   |    Registered:  10 months 13 days   |    Completed:  0 times

Seeder not seen: Never

 
   
 
 
Author Message

star21 ®

Gender: Female

Longevity: 4 years 1 month

Posts: 551946

Location: Екатеринбург

Post 01-Feb-2019 09:46

[Quote]

Формула Русской Революции. 1917 Страна: Россия
Студия: Телекомпания "Под знаком "Пи", Российское историческое общество, Фонд История Отечества
Жанр: Документальный, история
Год выпуска: 2018
Продолжительность: 02:10:00 (5 x ~ 00:26:00)
Режиссёр: Михаил КузовенковОписание: 1917 год навсегда изменил судьбу огромной страны и судьбы миллионов её жителей. Какой ценой устанавливалась советская власть в разных регионах СССР: Нижнем Новгороде, Крыму, Барнауле, Омске, Казани? Как бунтующее население оказывало яростное сопротивление? Что мы знаем о "профессиональных революционерах"? Авторы воссоздают исторические события столетней давности, чтобы мы узнали всё об истоках русской революции.Доп. информация:
Автор релиза -
Источник - DVB 576i TS - моя запись с канала "365 Дней ТВ", эфир от 07.11.2018Сэмпл: http://multi-up.com/1214295Рекламы нет! Качество видео: DVB
Формат видео: TSВидео: MPEG-4, 720x576@1024х576 (16:9), 25.000 fps, ~2400 kbps, 0.232 bit/pixel
Аудио: Русский MP2, 48000 Гц, 2ch, 192 kbps

MediaInfo

ОбщееИдентификатор                            : 1 (0x1)Полное имя                               : D:\Формула.Русской.Революции.1917.2018.DVB-ylnian\1.Омск.tsФормат                                   : MPEG-TSРазмер файла                             : 509 МбайтПродолжительность                        : 26 м. 0 с.Режим общего битрейта                    : ПеременныйОбщий поток                              : 2738 Кбит/секВидеоИдентификатор                            : 201 (0xC9)Идентификатор меню                       : 101 (0x65)Формат                                   : AVCФормат/Информация                        : Advanced Video CodecПрофиль формата                          : High@L3Настройки формата                        : CABAC / 4 Ref FramesПараметр CABAC формата                   : ДаПараметр RefFrames формата               : 4 кадраИдентификатор кодека                     : 27Продолжительность                        : 25 м. 59 с.Битрейт                                  : 2409 Кбит/секШирина                                   : 720 пикселейВысота                                   : 576 пикселейСоотношение сторон                       : 16:9Частота кадров                           : 25,000 кадров/секСтандарт вещания                         : ComponentЦветовое пространство                    : YUVСубдискретизация насыщенности            : 4:2:0Битовая глубина                          : 8 битТип развёртки                            : ЧересстрочнаяМетод сохранения типа развёртки          : Раздельные поляПорядок развёртки                        : Верхнее поле первоеБит/(Пиксели*Кадры)                      : 0.232Размер потока                            : 448 Мбайт (88%)Цветовой диапазон                        : LimitedОсновные цвета                           : BT.601 PALХарактеристики трансфера                 : BT.470 System B/GКоэффициенты матрицы                     : BT.470 System B/GАудиоИдентификатор                            : 301 (0x12D)Идентификатор меню                       : 101 (0x65)Формат                                   : MPEG AudioВерсия формата                           : Version 1Профиль формата                          : Layer 2Идентификатор кодека                     : 3Продолжительность                        : 25 м. 59 с.Вид битрейта                             : ПостоянныйБитрейт                                  : 192 Кбит/секКаналы                                   : 2 каналаЧастота                                  : 48,0 КГцЧастота кадров                           : 41,667 кадра/сек (1152 SPF)Метод сжатия                             : С потерямиЗадержка видео                           : -120 мс.Размер потока                            : 35,7 Мбайт (7%)Язык                                     : RussianОбщееИдентификатор                            : 1 (0x1)Полное имя                               : D:\Формула.Русской.Революции.1917.2018.DVB-ylnian\2.Нижний.Новгород.tsФормат                                   : MPEG-TSРазмер файла                             : 521 МбайтПродолжительность                        : 25 м. 59 с.Режим общего битрейта                    : ПеременныйОбщий поток                              : 2800 Кбит/секВидеоИдентификатор                            : 201 (0xC9)Идентификатор меню                       : 101 (0x65)Формат                                   : AVCФормат/Информация                        : Advanced Video CodecПрофиль формата                          : High@L3Настройки формата                        : CABAC / 4 Ref FramesПараметр CABAC формата                   : ДаПараметр RefFrames формата               : 4 кадраИдентификатор кодека                     : 27Продолжительность                        : 25 м. 59 с.Битрейт                                  : 2467 Кбит/секШирина                                   : 720 пикселейВысота                                   : 576 пикселейСоотношение сторон                       : 16:9Частота кадров                           : 25,000 кадров/секСтандарт вещания                         : ComponentЦветовое пространство                    : YUVСубдискретизация насыщенности            : 4:2:0Битовая глубина                          : 8 битТип развёртки                            : ЧересстрочнаяМетод сохранения типа развёртки          : Раздельные поляПорядок развёртки                        : Верхнее поле первоеБит/(Пиксели*Кадры)                      : 0.238Размер потока                            : 459 Мбайт (88%)Цветовой диапазон                        : LimitedОсновные цвета                           : BT.601 PALХарактеристики трансфера                 : BT.470 System B/GКоэффициенты матрицы                     : BT.470 System B/GАудиоИдентификатор                            : 301 (0x12D)Идентификатор меню                       : 101 (0x65)Формат                                   : MPEG AudioВерсия формата                           : Version 1Профиль формата                          : Layer 2Идентификатор кодека                     : 3Продолжительность                        : 25 м. 59 с.Вид битрейта                             : ПостоянныйБитрейт                                  : 192 Кбит/секКаналы                                   : 2 каналаЧастота                                  : 48,0 КГцЧастота кадров                           : 41,667 кадра/сек (1152 SPF)Метод сжатия                             : С потерямиЗадержка видео                           : -120 мс.Размер потока                            : 35,7 Мбайт (7%)Язык                                     : RussianОбщееИдентификатор                            : 1 (0x1)Полное имя                               : D:\Формула.Русской.Революции.1917.2018.DVB-ylnian\3.Крым.tsФормат                                   : MPEG-TSРазмер файла                             : 476 МбайтПродолжительность                        : 25 м. 59 с.Режим общего битрейта                    : ПеременныйОбщий поток                              : 2558 Кбит/секВидеоИдентификатор                            : 201 (0xC9)Идентификатор меню                       : 101 (0x65)Формат                                   : AVCФормат/Информация                        : Advanced Video CodecПрофиль формата                          : High@L3Настройки формата                        : CABAC / 4 Ref FramesПараметр CABAC формата                   : ДаПараметр RefFrames формата               : 4 кадраИдентификатор кодека                     : 27Продолжительность                        : 25 м. 59 с.Битрейт                                  : 2237 Кбит/секШирина                                   : 720 пикселейВысота                                   : 576 пикселейСоотношение сторон                       : 16:9Частота кадров                           : 25,000 кадров/секСтандарт вещания                         : ComponentЦветовое пространство                    : YUVСубдискретизация насыщенности            : 4:2:0Битовая глубина                          : 8 битТип развёртки                            : ЧересстрочнаяМетод сохранения типа развёртки          : Раздельные поляПорядок развёртки                        : Верхнее поле первоеБит/(Пиксели*Кадры)                      : 0.216Размер потока                            : 416 Мбайт (87%)Цветовой диапазон                        : LimitedОсновные цвета                           : BT.601 PALХарактеристики трансфера                 : BT.470 System B/GКоэффициенты матрицы                     : BT.470 System B/GАудиоИдентификатор                            : 301 (0x12D)Идентификатор меню                       : 101 (0x65)Формат                                   : MPEG AudioВерсия формата                           : Version 1Профиль формата                          : Layer 2Идентификатор кодека                     : 3Продолжительность                        : 25 м. 59 с.Вид битрейта                             : ПостоянныйБитрейт                                  : 192 Кбит/секКаналы                                   : 2 каналаЧастота                                  : 48,0 КГцЧастота кадров                           : 41,667 кадра/сек (1152 SPF)Метод сжатия                             : С потерямиЗадержка видео                           : -120 мс.Размер потока                            : 35,7 Мбайт (8%)Язык                                     : RussianОбщееИдентификатор                            : 1 (0x1)Полное имя                               : D:\Формула.Русской.Революции.1917.2018.DVB-ylnian\4.Казань.tsФормат                                   : MPEG-TSРазмер файла                             : 462 МбайтПродолжительность                        : 25 м. 59 с.Режим общего битрейта                    : ПеременныйОбщий поток                              : 2483 Кбит/секВидеоИдентификатор                            : 201 (0xC9)Идентификатор меню                       : 101 (0x65)Формат                                   : AVCФормат/Информация                        : Advanced Video CodecПрофиль формата                          : High@L3Настройки формата                        : CABAC / 4 Ref FramesПараметр CABAC формата                   : ДаПараметр RefFrames формата               : 4 кадраИдентификатор кодека                     : 27Продолжительность                        : 25 м. 59 с.Битрейт                                  : 2166 Кбит/секШирина                                   : 720 пикселейВысота                                   : 576 пикселейСоотношение сторон                       : 16:9Частота кадров                           : 25,000 кадров/секСтандарт вещания                         : ComponentЦветовое пространство                    : YUVСубдискретизация насыщенности            : 4:2:0Битовая глубина                          : 8 битТип развёртки                            : ЧересстрочнаяМетод сохранения типа развёртки          : Раздельные поляПорядок развёртки                        : Верхнее поле первоеБит/(Пиксели*Кадры)                      : 0.209Размер потока                            : 403 Мбайт (87%)Цветовой диапазон                        : LimitedОсновные цвета                           : BT.601 PALХарактеристики трансфера                 : BT.470 System B/GКоэффициенты матрицы                     : BT.470 System B/GАудиоИдентификатор                            : 301 (0x12D)Идентификатор меню                       : 101 (0x65)Формат                                   : MPEG AudioВерсия формата                           : Version 1Профиль формата                          : Layer 2Идентификатор кодека                     : 3Продолжительность                        : 25 м. 59 с.Вид битрейта                             : ПостоянныйБитрейт                                  : 192 Кбит/секКаналы                                   : 2 каналаЧастота                                  : 48,0 КГцЧастота кадров                           : 41,667 кадра/сек (1152 SPF)Метод сжатия                             : С потерямиЗадержка видео                           : -120 мс.Размер потока                            : 35,7 Мбайт (8%)Язык                                     : RussianОбщееИдентификатор                            : 1 (0x1)Полное имя                               : D:\Формула.Русской.Революции.1917.2018.DVB-ylnian\5.Барнаул.tsФормат                                   : MPEG-TSРазмер файла                             : 527 МбайтПродолжительность                        : 25 м. 59 с.Режим общего битрейта                    : ПеременныйОбщий поток                              : 2836 Кбит/секВидеоИдентификатор                            : 201 (0xC9)Идентификатор меню                       : 101 (0x65)Формат                                   : AVCФормат/Информация                        : Advanced Video CodecПрофиль формата                          : High@L3Настройки формата                        : CABAC / 4 Ref FramesПараметр CABAC формата                   : ДаПараметр RefFrames формата               : 4 кадраИдентификатор кодека                     : 27Продолжительность                        : 25 м. 59 с.Битрейт                                  : 2502 Кбит/секШирина                                   : 720 пикселейВысота                                   : 576 пикселейСоотношение сторон                       : 16:9Частота кадров                           : 25,000 кадров/секСтандарт вещания                         : ComponentЦветовое пространство                    : YUVСубдискретизация насыщенности            : 4:2:0Битовая глубина                          : 8 битТип развёртки                            : ЧересстрочнаяМетод сохранения типа развёртки          : Раздельные поляПорядок развёртки                        : Верхнее поле первоеБит/(Пиксели*Кадры)                      : 0.241Размер потока                            : 465 Мбайт (88%)Цветовой диапазон                        : LimitedОсновные цвета                           : BT.601 PALХарактеристики трансфера                 : BT.470 System B/GКоэффициенты матрицы                     : BT.470 System B/GАудиоИдентификатор                            : 301 (0x12D)Идентификатор меню                       : 101 (0x65)Формат                                   : MPEG AudioВерсия формата                           : Version 1Профиль формата                          : Layer 2Идентификатор кодека                     : 3Продолжительность                        : 25 м. 59 с.Вид битрейта                             : ПостоянныйБитрейт                                  : 192 Кбит/секКаналы                                   : 2 каналаЧастота                                  : 48,0 КГцЧастота кадров                           : 41,667 кадра/сек (1152 SPF)Метод сжатия                             : С потерямиЗадержка видео                           : -120 мс.Размер потока                            : 35,7 Мбайт (7%)Язык                                     : Russian

To download the content you need:
1. Download and install torrent client [for Windows] or for mobile system
2. Click on [Download]
Attention.
If the test YOU are NOT a ROBOT - does not work, then You are using an outdated browser.
Install the current browser and click on [Download]
Security: torrent client is allowed by Kaspersky.

[en.asmlocator.ru].t604377.torrent 
Torrent: Registered [ 2019-02-01 09:45 ] · 50E74DDEEC5D0532B093F63D08880F5BEB5030C3

Download .torrent

Download

13 KB

Status: checked
Completed: 0 times
Size: 2.44 GB
terms.php
[Profile] [PM]
Display posts:    
Reply to topic

Current time is: 15-Dec 03:30

All times are UTC ± 0



You cannot post new topics in this forum
You cannot reply to topics in this forum
You cannot edit your posts in this forum
You cannot delete your posts in this forum
You cannot vote in polls in this forum
You cannot attach files in this forum
You can download files in this forum
Верим фактам, а не вранью Путина! Факт, что Правительство ведёт Россию к истреблению.
Так как численность населения падает, даже не смотря на приток эмигрантов!
Русская нация вымирает и вырождается, смешиваясь с эмигрантами!
Факт, что военных и граждан предприятий заставляют голосовать за партию Единая Россия и Путина
ПОД СТРАХОМ УВОЛЬНЕНИЯ!
Нам не нужно Правительство, блокирующее личную жизнь, интернет, нарушающее сохранность данных.
Все эти действия финансируются за счёт народа!