Игнатий Стеллецкий. Тайна подземных палат (Игорь Волосецкий) [2017, Документальный, история, биография, DVB] Original Rus + Sub Rus

Reply to topic
DL-List and Torrent activity
Size:  770 MB   |    Registered:  10 months 9 days   |    Completed:  0 times

Seeder not seen: Never

 
   
 
 
Author Message

star21 ®

Gender: Female

Longevity: 4 years 1 month

Posts: 551946

Location: Екатеринбург

Post 01-Feb-2019 09:46

[Quote]

Игнатий Стеллецкий. Тайна подземных палат Страна: Россия
Студия: ООО "ГОЛД МЕДИУМ", Телеканал "Россия-Культура", ВГТРК
Жанр: Документальный, история, биография
Год выпуска: 2017
Продолжительность: 00:38:58
Режиссёр: Игорь ВолосецкийОписание: Легендарный русский диггер Игнатий Стеллецкий с юных лет исследовал столичное подземелье. Первый раз он спустился в подвалы Кремля ещё в начале XX века. Но самая главная тайна, которую пытался разгадать бесстрашный археолог – это исчезнувшая библиотека Ивана Грозного. Нашел ли её Стеллецкий? Эта история и стала основным сюжетом фильма.Доп. информация:
Автор релиза -
Источник для рипа - DVB 576i TS - моя запись с канала "Россия К"Сэмпл: http://multi-up.com/1216341Рекламы нет! Качество видео: DVB
Формат видео: MKVВидео: MPEG-4, 720x576@1024х576 (16:9), 25.000 fps, 2568 kbps, 0.248 bit/pixel
Аудио: Русский MP2, 48000 Гц, 2ch, 192 kbps
Формат субтитров: softsub (SRT)

MediaInfo

ОбщееУникальный идентификатор                 : 97455038676890573559388552199586621532 (0x4951286076C9592CABAFC7EA628AA85C)Полное имя                               : D:\Игнатий.Стеллецкий.Тайна.подземных.палат.2017.DVB.576i-ylnian.mkvФормат                                   : MatroskaВерсия формата                           : Version 4Размер файла                             : 770 МбайтПродолжительность                        : 38 м. 57 с.Общий поток                              : 2762 Кбит/секДата кодирования                         : UTC 2018-11-29 17:01:56Программа кодирования                    : mkvmerge v28.2.0 ('The Awakening') 64-bitБиблиотека кодирования                   : libebml v1.3.6 + libmatroska v1.4.9 / VideoReDo (Lavf56.25.101)ВидеоИдентификатор                            : 1Формат                                   : AVCФормат/Информация                        : Advanced Video CodecПрофиль формата                          : Main@L3Настройки формата                        : CABAC / 3 Ref FramesПараметр CABAC формата                   : ДаПараметр RefFrames формата               : 3 кадраПараметр GOP формата                     : M=4, N=28Идентификатор кодека                     : V_MPEG4/ISO/AVCПродолжительность                        : 38 м. 57 с.Битрейт                                  : 2568 Кбит/секШирина                                   : 720 пикселейВысота                                   : 576 пикселейСоотношение сторон                       : 1,85:1Соотношение сторон в оригинале           : 16:9Режим частоты кадров                     : ПостоянныйЧастота кадров                           : 25,000 кадров/секСтандарт вещания                         : ComponentЦветовое пространство                    : YUVСубдискретизация насыщенности            : 4:2:0Битовая глубина                          : 8 битТип развёртки                            : ЧересстрочнаяМетод сохранения типа развёртки          : Раздельные поляПорядок развёртки                        : Верхнее поле первоеБит/(Пиксели*Кадры)                      : 0.248Размер потока                            : 716 Мбайт (93%)Язык                                     : RussianDefault                                  : ДаForced                                   : ДаЦветовой диапазон                        : LimitedОсновные цвета                           : BT.601 PALХарактеристики трансфера                 : BT.470 System B/GКоэффициенты матрицы                     : BT.470 System B/GАудиоИдентификатор                            : 2Формат                                   : MPEG AudioВерсия формата                           : Version 1Профиль формата                          : Layer 2Идентификатор кодека                     : A_MPEG/L2Идентификатор кодека/Подсказка           : MP2Продолжительность                        : 38 м. 57 с.Вид битрейта                             : ПостоянныйБитрейт                                  : 192 Кбит/секКаналы                                   : 2 каналаЧастота                                  : 48,0 КГцЧастота кадров                           : 41,667 кадра/сек (1152 SPF)Метод сжатия                             : С потерямиРазмер потока                            : 53,5 Мбайт (7%)Язык                                     : RussianDefault                                  : ДаForced                                   : ДаТекстИдентификатор                            : 3Формат                                   : UTF-8Идентификатор кодека                     : S_TEXT/UTF8Идентификатор кодека/Информация          : UTF-8 Plain TextПродолжительность                        : 38 м. 7 с.Битрейт                                  : 180 бит/секElementCount                             : 638Размер потока                            : 50,4 Кбайт (0%)Язык                                     : RussianDefault                                  : НетForced                                   : Нет

To download the content you need:
1. Download and install torrent client [for Windows] or for mobile system
2. Click on [Download]
Attention.
If the test YOU are NOT a ROBOT - does not work, then You are using an outdated browser.
Install the current browser and click on [Download]
Security: torrent client is allowed by Kaspersky.

[en.asmlocator.ru].t604367.torrent 
Torrent: Registered [ 2019-02-01 09:45 ] · D2E74CDE542918D2D55E8CA6744516F0219AC815

Download .torrent

Download

16 KB

Status: checked
Completed: 0 times
Size: 770 MB
terms.php
[Profile] [PM]
Display posts:    
Reply to topic

Current time is: 11-Dec 05:15

All times are UTC ± 0



You cannot post new topics in this forum
You cannot reply to topics in this forum
You cannot edit your posts in this forum
You cannot delete your posts in this forum
You cannot vote in polls in this forum
You cannot attach files in this forum
You can download files in this forum
Верим фактам, а не вранью Путина! Факт, что Правительство ведёт Россию к истреблению.
Так как численность населения падает, даже не смотря на приток эмигрантов!
Русская нация вымирает и вырождается, смешиваясь с эмигрантами!
Факт, что военных и граждан предприятий заставляют голосовать за партию Единая Россия и Путина
ПОД СТРАХОМ УВОЛЬНЕНИЯ!
Нам не нужно Правительство, блокирующее личную жизнь, интернет, нарушающее сохранность данных.
Все эти действия финансируются за счёт народа!