[SACD-R][OF] Henry Mancini - Return of the Pink Panther & Symphonic Soul - 1975/2017 (Big Band, Bayou Funk, Easy Listening, Soundtrack)

Reply to topic
DL-List and Torrent activity
Size:  3.09 GB   |    Registered:  2 years   |    Completed:  3 times

Seeder not seen: 47 minutes

 
   
 
 
Author Message

star21 ®

Gender: Female

Longevity: 4 years 6 months

Posts: 551945

Location: Екатеринбург

Post 21-May-2018 13:50

[Quote]

Henry Mancini / Return of the Pink Panther & Symphonic Soul Формат записи/Источник записи: [SACD-R][OF]
Наличие водяных знаков: Нет
Год издания/переиздания диска: 1975/2017
Жанр: Big Band, Bayou Funk, Easy Listening, Soundtrack
Издатель (лейбл): RCA / Vocalion
Продолжительность: 01:11:24
Наличие сканов в содержимом раздачи: Да (сканы)Треклист:
The Return of the Pink Panther
1: THE PINK PANTHER THEME (Mancini) soloist: Tony Coe (tenor sax)
2: THE GREATEST GIFT (Mancini; David) instrumental version
3: HERE’S LOOKING AT YOU, KID (Mancini)
4: SUMMER IN GSTAAD (Mancini)
5: SO SMOOTH (Mancini)
6: THE RETURN OF THE PINK PANTHER (PARTS 1 & 2) (Mancini) includes The Pink Panther Theme
7: THE GREATEST GIFT (Mancini; David) vocal version/soloist: Henry Mancini (piano)
8: THE ORANGE FLOAT (Mancini)
9: DREAMY (Mancini) soloist: Henry Mancini (piano)
10: DISCO (Mancini)
11: NAVEL MANOEUVRE (Mancini)
12: BELLY BELLY BUM BUM (Mancini)
13: THE WET LOOK (Mancini)Symphonic Soul
14: SYMPHONIC SOUL (Mancini) soloist: Bud Brisbois (piccolo trumpet)
15: BUTTERFLY (Hancock) soloists:Abraham Laboriel (bass guitar), Joe Sample (electric piano)
16: SATIN SOUL (White) soloist: Joe Sample (organ)
17: PETER GUNN NEW VERSION (Mancini) theme from the TV series soloists: Abraham Laboriel (bass guitar), Joe Sample (organ), Bud Brisbois (piccolo trumpet/trumpet)
18: SLOW HOT WIND LUJON (Mancini; Gimbel) soloist: Louise DiTullio (flute)
19: PICK UP THE PIECES (Ball; Stuart) soloist: Joe Sample (organ)
20: SUN GODDESS (White; Lind) soloist: Joe Sample (organ)
21: SOUL SAGA SONG OF THE BUFFALO SOLDIER (Jones; Brown; Bahler; Greene) soloist: Tommy Morgan (harmonica)
22: AFRICAN SYMPHONY (McCoy) soloist: Mayuto Correa (African finger piano)Контейнер: ISO (*.iso)
Тип рипа: image
Разрядность: 64(2,8 MHz/1 Bit)
Формат: DST64
Количество каналов: 5.1 (4.0), 2.0Доп. информация: Contains the complete original stereo and quadraphonic mixes of the albums "The Return Of The Pink Panther" ABL1/ABD1-0968 (1975) and "Symphonic Soul" APL1/APD1-1025 (1975).
All Tracks Available In Stereo And Multichannel
Remastered By – Michael J. Dutton
Vocalion CDSML 8535 (2017)
This SACD ISO was ripped by sacd-ripper for PS3 version 0.37.

Состав

A&R [Reissue] – Michael J. Dutton*, Oliver Lomax (2)
Arranged By – Henry Mancini
Bass – Abraham Laboriel (tracks: 14-22)
Concertmaster – Erno Neufeld (tracks: 14-22)
Contractor [Orchestra Contractor] – Sidney Sax (tracks: 1-13)
Drums – Harvey Mason (tracks: 14-22)
Engineer – John Richards (tracks: 1-13)
Engineer [Recording, Assistant] – Artie Torgersen (tracks: 14-22)
Engineer [Recording] – Mickey Crofford (tracks: 14-22)
French Horn [Principal] – Vincent DeRosa (tracks: 14-22)
Guitar – David T. Walker (tracks: 14-22), Dennis Budimir (tracks: 14-22), Lee Ritenour (tracks: 14-22)
Keyboards – Joe Sample (tracks: 14-22)
Liner Notes – Oliver Lomax (2)
Management [Orchestra Manager] – Marion Klein (tracks: 14-22)
Mixed By [Album Mix] – Mickey Crofford (tracks: 1-13)
Mixed By [Film Mix] – John Richards (tracks: 1-13)
Percussion – Dale Anderson (2) (tracks: 14-22), Emil Richards (tracks: 14-22), Harvey Mason (tracks: 14-22)
Percussion [Latin] – Mayuto* (tracks: 14-22)
Producer – Joe Reisman
Trombone [Principal] – Dick Nash (tracks: 14-22)
Written-By – Hal David (tracks: 2, 7), Henry Mancini (tracks: 1-13)
Источник (релизер): KingCrim (PS³SACD)
https://www.duttonvocalion.co.uk/proddetail.php?prod=CDSML8535
https://www.amazon.com/Henry-Mancini-Panther-Symphonic-Multi-channel/dp/B077YSSFW3

Лог DR

foobar2000 1.3.13 / Замер динамического диапазона (DR) 1.1.1Дата отчёта:  2018-05-21 14:06:40--------------------------------------------------------------------------------Анализ:   Henry Mancini  / Return of the Pink Panther--------------------------------------------------------------------------------DR         Пики         RMS           Продолжительность трека--------------------------------------------------------------------------------DR17      -6.46 дБ   -26.40 дБ      3:05 01-The Pink Panther ThemeDR8       -8.64 дБ   -26.00 дБ      2:21 02-The Greatest Gift   instrumentalDR9       -8.19 дБ   -25.29 дБ      2:52 03-Heres Looking at You KidDR8       -8.26 дБ   -25.95 дБ      2:03 04-Summer in GstaadDR8       -9.20 дБ   -27.10 дБ      4:10 05-So SmoothDR9       -6.34 дБ   -26.26 дБ      5:11 06-The Return of the Pink Panther Part 1 & 2DR8       -8.18 дБ   -25.97 дБ      3:22 07-The Greatest Gift  vocal versionDR8       -8.60 дБ   -26.11 дБ      3:11 08-The Orange FloatDR8       -8.62 дБ   -26.33 дБ      3:24 09-DreamyDR8       -6.15 дБ   -22.63 дБ      2:07 10-DiscoDR8       -9.03 дБ   -26.31 дБ      2:15 11-Navel ManoeuvreDR9       -7.07 дБ   -24.66 дБ      2:15 12-Belly Belly Bum BumDR8       -6.19 дБ   -24.05 дБ      3:07 13-The Wet LookDR7       -7.47 дБ   -23.24 дБ      2:28 14-Symphonic SoulDR9       -6.11 дБ   -25.77 дБ      4:50 15-ButterflyDR8       -6.91 дБ   -23.25 дБ      3:09 16-Satin SoulDR8       -6.46 дБ   -23.73 дБ      4:34 17-Peter Gunn new versionDR9       -7.07 дБ   -25.95 дБ      2:46 18-Slow Hot Wind LujonDR8       -6.87 дБ   -24.07 дБ      3:39 19-Pick up the PiecesDR8       -7.09 дБ   -23.92 дБ      3:36 20-Sun GoddessDR7       -6.40 дБ   -22.25 дБ      3:14 21-Soul Saga Song of the Buffalo SoldierDR8       -7.72 дБ   -24.83 дБ      3:17 22-African Symphony--------------------------------------------------------------------------------Количество треков: 22Реальные значения DR: DR9Частота:   2822400 Гц / Частота PCM: 352800 ГцКаналов:   6Разрядность:   24Битрейт:   16934 кбит/сКодек:   DST64================================================================================--------------------------------------------------------------------------------Анализ:   Henry Mancini  / Return of the Pink Panther--------------------------------------------------------------------------------DR         Пики         RMS           Продолжительность трека--------------------------------------------------------------------------------DR14      -6.76 дБ   -23.70 дБ      3:05 01-The Pink Panther ThemeDR12      -9.37 дБ   -23.56 дБ      2:21 02-The Greatest Gift   instrumentalDR13      -8.06 дБ   -22.88 дБ      2:52 03-Heres Looking at You KidDR12      -8.22 дБ   -22.19 дБ      2:03 04-Summer in GstaadDR12      -9.72 дБ   -24.03 дБ      4:10 05-So SmoothDR13      -6.98 дБ   -23.56 дБ      5:11 06-The Return of the Pink Panther Part 1 & 2DR12      -7.24 дБ   -23.31 дБ      3:22 07-The Greatest Gift  vocal versionDR12      -8.78 дБ   -22.91 дБ      3:11 08-The Orange FloatDR12      -9.45 дБ   -23.90 дБ      3:24 09-DreamyDR11      -7.54 дБ   -20.86 дБ      2:07 10-DiscoDR12      -9.95 дБ   -24.47 дБ      2:15 11-Navel ManoeuvreDR13      -7.06 дБ   -22.25 дБ      2:15 12-Belly Belly Bum BumDR13      -6.18 дБ   -21.65 дБ      3:07 13-The Wet LookDR12      -5.60 дБ   -19.78 дБ      2:28 14-Symphonic SoulDR14      -6.89 дБ   -23.83 дБ      4:50 15-ButterflyDR13      -4.73 дБ   -20.85 дБ      3:09 16-Satin SoulDR12      -5.52 дБ   -21.43 дБ      4:34 17-Peter Gunn new versionDR13      -4.38 дБ   -22.45 дБ      2:46 18-Slow Hot Wind LujonDR12      -4.91 дБ   -20.51 дБ      3:39 19-Pick up the PiecesDR13      -7.14 дБ   -22.02 дБ      3:36 20-Sun GoddessDR12      -5.64 дБ   -20.76 дБ      3:14 21-Soul Saga Song of the Buffalo SoldierDR12      -5.16 дБ   -20.84 дБ      3:44 22-African Symphony--------------------------------------------------------------------------------Количество треков: 22Реальные значения DR: DR12Частота:   2822400 Гц / Частота PCM: 352800 ГцКаналов:   2Разрядность:   24Битрейт:   5645 кбит/сКодек:   DST64================================================================================

To download the content you need:
1. Download and install torrent client [for Windows] or for mobile system
2. Click on [Download]
Attention.
If the test YOU are NOT a ROBOT - does not work, then You are using an outdated browser.
Install the current browser and click on [Download]

Do not work with Yandex browser. Uploading files to them is erroneous.
Security: torrent client is allowed by Kaspersky.

[en.asmlocator.ru].t534044.torrent 
Torrent: Registered [ 2018-05-21 13:50 ] · 80C2B9B69CA41C9D3ECB8EEF88879781CB3254B2

Download .torrent

Download

16 KB

Status: checked
Completed: 3 times
Size: 3.09 GB
terms.php
[Profile] [PM]
Display posts:    
Reply to topic

Current time is: 29-May 04:28

All times are UTC ± 0



You cannot post new topics in this forum
You cannot reply to topics in this forum
You cannot edit your posts in this forum
You cannot delete your posts in this forum
You cannot vote in polls in this forum
You cannot attach files in this forum
You can download files in this forum
Верим фактам, а не вранью Путина! Факт, что Правительство ведёт Россию к истреблению.
Так как численность населения падает, даже не смотря на приток эмигрантов!
Русская нация вымирает и вырождается, смешиваясь с эмигрантами!
Факт, что военных и граждан предприятий заставляют голосовать за партию Единая Россия и Путина
ПОД СТРАХОМ УВОЛЬНЕНИЯ!
Нам не нужно Правительство, блокирующее личную жизнь, интернет, нарушающее сохранность данных.
Все эти действия финансируются за счёт народа!