[SACD-R][OF] Ray Davies & The Button Down Brass - Themes From The Exorcist & Flashpoint - 2017 (Easy Listening)

Reply to topic
DL-List and Torrent activity
Size:  2.87 GB   |    Registered:  2 years 3 months   |    Completed:  2 times

Seeder not seen: 14 minutes

 
   
 
 
Author Message

star21 ®

Gender: Female

Longevity: 4 years 6 months

Posts: 551945

Location: Екатеринбург

Post 08-Feb-2018 09:25

[Quote]

Ray Davies & The Button Down Brass
Themes from The Exorcist, The French Connection, The Sting and other great films & Flashpoint
Формат записи/Источник записи: [SACD-R][OF]
Наличие водяных знаков: Нет
Год издания/переиздания диска: 1974,1975/2017
Жанр: Easy Listening, Jazz
Издатель (лейбл): Mercuru / Vocalion
Продолжительность: 01:03:50
Наличие сканов в содержимом раздачи: Да (сканы)Треклист:
Themes from The Exorcist, The French Connection, The Sting and other great films
1: THE FRENCH CONNECTION (Ellis)
2: LOVE THEME FROM THE GETAWAY (Jones; A & M Bergman)
3: KLUTE (Small)
4: THE MAGICIAN (Williams) theme from the TV series
5: THE ENTERTAINER (Joplin) theme from the film The Sting
6: BULLITT (Schifrin)
7: COPS AND ROBBERS (Legrand)
8: ENTER THE DRAGON (Schifrin)
9: NIGHT MUST FALL (Davies)
10: POINT BLANK (Mandel)
11: BEYOND TOMORROW (Theodorakis; Kusik) love theme from the film Serpico
12: TUBULAR BELLS (Oldfield) theme from the film The Exorcist
Flashpoint
13: THE MAN WITH THE GOLDEN GUN (Barry; Black)
14: THE BIG BOSS (Koo)
15: EARTHQUAKE (Williams) main title & love theme
16: MR MAJESTYK (Bernstein)
17: LOVE SAID GOODBYE (Rota; Kusik) from the film The Godfather Part 2
18: KOJAK (Goldenberg)
19: MAGNUM FORCE (Schifrin)
20: GOLD (Bernstein; Black)
21: LIVE AND LET DIE (P & L McCartney)
22: AIRPORT 1975 (Cacavas)
23: WE MAY NEVER LOVE LIKE THIS AGAIN (Kasha; Hirschhorn) from the film The Towering Inferno
24: FIST OF FURY (Koo)Контейнер: ISO (*.iso)
Тип рипа: image
Разрядность: 64(2,8 MHz/1 Bit)
Формат: DST64
Количество каналов: 5.1, 2.0Доп. информация: Vocalion CDSML 8526 (2017)
This SACD ISO was ripped by sacd-ripper for PS3 version 0.37.
Источник (релизер): KingCrim (PS³SACD)
https://www.duttonvocalion.co.uk/proddetail.php?prod=CDSML8526
https://www.amazon.co.uk/Themes-Sacd-Davies-Button-Down/dp/B072N16Z6D

Лог DR

foobar2000 1.3.13 / Замер динамического диапазона (DR) 1.1.1Дата отчёта:  2018-02-08 09:08:45--------------------------------------------------------------------------------Анализ:   Ray Davies Button Down / Themes & Flashpoint--------------------------------------------------------------------------------DR         Пики         RMS           Продолжительность трека--------------------------------------------------------------------------------DR16      -5.10 дБ   -21.93 дБ      2:56 01-The French ConnectionDR9       -6.80 дБ   -25.14 дБ      2:40 02-Love Theme from The GetawayDR9       -6.26 дБ   -24.89 дБ      3:22 03-KluteDR9       -4.62 дБ   -23.75 дБ      1:56 04-The MagicianDR10      -4.83 дБ   -24.14 дБ      2:52 05-The EntertainerDR8       -5.83 дБ   -23.28 дБ      2:23 06-BullittDR8       -6.29 дБ   -24.50 дБ      2:14 07-Cops and RobbersDR9       -4.96 дБ   -23.70 дБ      2:06 08-Enter the DragonDR9       -6.04 дБ   -24.36 дБ      3:16 09-Night Must FallDR9       -5.79 дБ   -25.01 дБ      3:08 10-Point BlankDR8       -7.31 дБ   -24.36 дБ      2:15 11-Beyond TomorrowDR9       -5.02 дБ   -24.01 дБ      3:04 12-Tubular BellsDR10      -4.82 дБ   -23.52 дБ      2:43 13-The Man with the Golden GunDR10      -5.38 дБ   -23.65 дБ      2:38 14-The Big BossDR9       -6.44 дБ   -24.08 дБ      3:33 15-EarthquakeDR10      -4.86 дБ   -24.41 дБ      2:07 16-Mr MajestykDR8       -5.81 дБ   -24.87 дБ      3:01 17-Love Said GoodbyeDR9       -5.61 дБ   -24.34 дБ      1:51 18-KojakDR10      -5.07 дБ   -23.74 дБ      1:47 19-Magnum ForceDR10      -5.43 дБ   -24.65 дБ      2:15 20-GoldDR9       -6.33 дБ   -25.38 дБ      2:50 21-Live and Let DieDR9       -7.13 дБ   -24.08 дБ      3:15 22-Airport 1975DR10      -5.09 дБ   -24.87 дБ      3:19 23-We May Never Love Like this AgainDR9       -5.70 дБ   -23.73 дБ      2:20 24-Fist of Fury--------------------------------------------------------------------------------Количество треков: 24Реальные значения DR: DR9Частота:   2822400 Гц / Частота PCM: 352800 ГцКаналов:   6Разрядность:   24Битрейт:   16934 кбит/сКодек:   DST64================================================================================--------------------------------------------------------------------------------Анализ:   Ray Davies Button Down / Themes & Flashpoint--------------------------------------------------------------------------------DR         Пики         RMS           Продолжительность трека--------------------------------------------------------------------------------DR13      -6.11 дБ   -21.21 дБ      2:56 01-The French ConnectionDR13      -6.77 дБ   -22.17 дБ      2:40 02-Love Theme from The GetawayDR11      -6.82 дБ   -21.38 дБ      3:22 03-KluteDR13      -6.08 дБ   -20.50 дБ      1:56 04-The MagicianDR13      -6.41 дБ   -22.22 дБ      2:52 05-The EntertainerDR13      -5.78 дБ   -20.33 дБ      2:23 06-BullittDR12      -7.27 дБ   -21.71 дБ      2:14 07-Cops and RobbersDR12      -6.16 дБ   -20.95 дБ      2:06 08-Enter the DragonDR12      -7.02 дБ   -21.67 дБ      3:16 09-Night Must FallDR12      -6.08 дБ   -21.43 дБ      3:08 10-Point BlankDR12      -6.66 дБ   -21.58 дБ      2:15 11-Beyond TomorrowDR13      -5.61 дБ   -22.06 дБ      3:04 12-Tubular BellsDR14      -5.59 дБ   -21.76 дБ      2:43 13-The Man with the Golden GunDR13      -6.72 дБ   -22.24 дБ      2:38 14-The Big BossDR13      -7.45 дБ   -22.83 дБ      3:33 15-EarthquakeDR13      -6.23 дБ   -22.69 дБ      2:07 16-Mr MajestykDR13      -7.66 дБ   -23.15 дБ      3:01 17-Love Said GoodbyeDR13      -5.84 дБ   -22.15 дБ      1:51 18-KojakDR13      -5.69 дБ   -21.88 дБ      1:47 19-Magnum ForceDR14      -7.45 дБ   -23.46 дБ      2:15 20-GoldDR13      -6.85 дБ   -22.84 дБ      2:50 21-Live and Let DieDR13      -6.57 дБ   -21.27 дБ      3:15 22-Airport 1975DR15      -6.15 дБ   -23.47 дБ      3:19 23-We May Never Love Like this AgainDR13      -6.79 дБ   -21.44 дБ      2:20 24-Fist of Fury--------------------------------------------------------------------------------Количество треков: 24Реальные значения DR: DR13Частота:   2822400 Гц / Частота PCM: 352800 ГцКаналов:   2Разрядность:   24Битрейт:   5645 кбит/сКодек:   DST64================================================================================

To download the content you need:
1. Download and install torrent client [for Windows] or for mobile system
2. Click on [Download]
Attention.
If the test YOU are NOT a ROBOT - does not work, then You are using an outdated browser.
Install the current browser and click on [Download]

Do not work with Yandex browser. Uploading files to them is erroneous.
Security: torrent client is allowed by Kaspersky.

[en.asmlocator.ru].t501534.torrent 
Torrent: Registered [ 2018-02-08 09:25 ] · A6C77406AA61106768A8C3F1E95DFF988979842E

Download .torrent

Download

15 KB

Status: checked
Completed: 2 times
Size: 2.87 GB
terms.php
[Profile] [PM]
Display posts:    
Reply to topic

Current time is: 29-May 02:59

All times are UTC ± 0



You cannot post new topics in this forum
You cannot reply to topics in this forum
You cannot edit your posts in this forum
You cannot delete your posts in this forum
You cannot vote in polls in this forum
You cannot attach files in this forum
You can download files in this forum
Верим фактам, а не вранью Путина! Факт, что Правительство ведёт Россию к истреблению.
Так как численность населения падает, даже не смотря на приток эмигрантов!
Русская нация вымирает и вырождается, смешиваясь с эмигрантами!
Факт, что военных и граждан предприятий заставляют голосовать за партию Единая Россия и Путина
ПОД СТРАХОМ УВОЛЬНЕНИЯ!
Нам не нужно Правительство, блокирующее личную жизнь, интернет, нарушающее сохранность данных.
Все эти действия финансируются за счёт народа!