Нищий / Банкрот / Dead Broke (Эдвард Вилга / Edward Vilga) [1998, США, Детективный триллер, DVDRip] AVO (Андрей Дольский)

Reply to topic
DL-List and Torrent activity
Size:  921 MB   |    Registered:  4 years 5 months   |    Completed:  0 times

Seeder not seen: 3 years 11 months

 
   
 
 
Author Message

star21 ®

Gender: Female

Longevity: 4 years 6 months

Posts: 551945

Location: Екатеринбург

Post 02-Dec-2015 05:44

[Quote]

Нищий / Банкрот / Dead Broke
Страна: США
Жанр: Детективный триллер
Год выпуска: 1998
Продолжительность: 01:37:30
Перевод: Авторский (одноголосый закадровый) Андрей Дольский
Cубтитры: нет
Режиссер: Эдвард Вилга / Edward Vilga
В ролях: Пол Сорвино, Джон Гловер, Тони Робертс, Джастин Теру, Джилл Хеннесси, Кристофер Лоуфорд, Черил Робертс
Описание: В этом крутом детективе режиссера Эдварда Вилги с участием в главных ролях актеров Джиллы Хеннесси, Пола Сорвино и Джона Гловера непреклонному следователю не удается раскрыть дело по горячим следам, поэтому все потенциальные свидетели убийства становятся для него подозреваемыми.
После того, как выстрелы прорезали черную ночную тишь и тело погрузилось в ледяные глубины у пустынного пирса, неопознанный звонок в службу спасения 911 запускает цепочку леденящих кровь событий. За этим убийством последовало другое, неподалеку от Агентства по сбору платежей "Polite Persistence", примыкающего к пирсу, что позволяет следователю Сэму (Джон Гловер) связать эти два преступления.
Молчаливость и проявление особой осторожности сотрудниками Агентства явно скрывает нечто большее. У кого-то из них есть ключик к этой тайне. Но у кого? Коррумпированного Харви (Пол Сорвино)? Темной овечки Джеймса (Джастин Теру)? Вспыльчивой Фрэнки (Патрисия Скэнлон)? Педантичного Уолтера (Тони Робертс)? Или скромной матери-одиночки Кэйт (Хеннесси)? Сэм клянется раскрыть это дело, даже если это будет стоить ему жизни.
Доп. информация: Дорожка с А. Дольским ремастерирована, синхронизирована и наложена ale_x2008 при помощи Adobe Audition, Sony Vegas и VirtualDubMod.
За оцифрованную с VHS дорожку благодарим - Анна57

Релиз
Сэмпл: https://yadi.sk/i/h0f0ZuEuicibj
Качество видео: DVDRip
Формат видео: AVI
Видео: XviD, 512x384 (1.33:1), 25.00 fps, 1118 kbps avg, 0.23 bit/pixel
Аудио: AC3 Dolby Digital, 48000Hz, 2/0 (L,R) ch, 192.00 kbps avg

MediaInfo

Нищий - Dead Broke [by ale_x2008].avi
Format : AVI
Format/Info : Audio Video Interleave
File size : 921 MiB
Duration : 1h 37mn
Overall bit rate : 1 320 Kbps
Movie name : Нищий - Dead Broke [by ale_x2008]
Director : by ale_x2008
Writing application : VirtualDubMod 1.5.10.3 (build 2550/release)
Copyright : Edich2
Comment : RuTracker.org
Video
ID : 0
Format : MPEG-4 Visual
Format profile : Advanced Simple@L5
Format settings, BVOP : 2
Format settings, QPel : No
Format settings, GMC : No warppoints
Format settings, Matrix : Default (H.263)
Codec ID : XVID
Codec ID/Hint : XviD
Duration : 1h 37mn
Bit rate : 1 118 Kbps
Width : 512 pixels
Height : 384 pixels
Display aspect ratio : 4:3
Frame rate : 25.000 fps
Color space : YUV
Chroma subsampling : 4:2:0
Bit depth : 8 bits
Scan type : Progressive
Compression mode : Lossy
Bits/(Pixel*Frame) : 0.227
Stream size : 780 MiB (85%)
Writing library : XviD 1.0.3 (UTC 2004-12-20)
Audio
ID : 1
Format : AC-3
Format/Info : Audio Coding 3
Mode extension : CM (complete main)
Format settings, Endianness : Big
Codec ID : 2000
Duration : 1h 37mn
Bit rate mode : Constant
Bit rate : 192 Kbps
Channel(s) : 2 channels
Channel positions : Front: L R
Sampling rate : 48.0 KHz
Bit depth : 16 bits
Compression mode : Lossy
Stream size : 134 MiB (15%)
Alignment : Split accross interleaves
Interleave, duration : 40 ms (1.00 video frame)
Interleave, preload duration : 500 ms

Скриншоты



To download the content you need:
1. Download and install torrent client [for Windows] or for mobile system
2. Click on [Download]
Attention.
If the test YOU are NOT a ROBOT - does not work, then You are using an outdated browser.
Install the current browser and click on [Download]

Do not work with Yandex browser. Uploading files to them is erroneous.
Security: torrent client is allowed by Kaspersky.

[en.asmlocator.ru].t4928.torrent 
Torrent: Registered [ 2015-12-02 05:40 ] · D02A8D985FB96ACA21A5DDE4EAEFA9B424ACDCF1

Download .torrent

Download

18 KB

Status: checked
Completed: 0 times
Size: 921 MB
terms.php
[Profile] [PM]
Display posts:    
Reply to topic

Current time is: 29-May 10:42

All times are UTC ± 0



You cannot post new topics in this forum
You cannot reply to topics in this forum
You cannot edit your posts in this forum
You cannot delete your posts in this forum
You cannot vote in polls in this forum
You cannot attach files in this forum
You can download files in this forum
Верим фактам, а не вранью Путина! Факт, что Правительство ведёт Россию к истреблению.
Так как численность населения падает, даже не смотря на приток эмигрантов!
Русская нация вымирает и вырождается, смешиваясь с эмигрантами!
Факт, что военных и граждан предприятий заставляют голосовать за партию Единая Россия и Путина
ПОД СТРАХОМ УВОЛЬНЕНИЯ!
Нам не нужно Правительство, блокирующее личную жизнь, интернет, нарушающее сохранность данных.
Все эти действия финансируются за счёт народа!