Детектор Лжи / Deceiver (Джонас Пейт / Jonas Pate, Джош Пейт / Josh Pate) [1997, США, триллер, драма, криминал, детектив, DVDRip] MVO (ТВЦ) + Original Eng

Reply to topic
DL-List and Torrent activity
Size:  2.08 GB   |    Registered:  4 years 5 months   |    Completed:  0 times

Seeder not seen: 1 year 3 months

 
   
 
 
Author Message

star21 ®

Gender: Female

Longevity: 4 years 6 months

Posts: 551945

Location: Екатеринбург

Post 02-Dec-2015 05:40

[Quote]

Детектор Лжи / Deceiver-Детектор лжи уже включён.
Но машина не всегда способна отличить факты от вымысла.
Правду ото лжи.
Здесь под подозрением каждый, но есть лишь один настоящий убийца.
- Год выпуска: 1997
Страна: США
Жанр: триллер, драма, криминал, детектив
Продолжительность: 01:41:56
Перевод: Профессиональный (многоголосый закадровый) - ТВЦ
Cубтитры: нет
Оригинальная аудиодорожка: английский
Режиссер: Джонас Пейт / Jonas Pate, Джош Пейт / Josh Pate
В ролях: Тим Рот (Wayland), Крис Пенн (Det. Phillip Braxton), Майкл Рукер (Det. Edward Kennesaw), Рене Зеллвегер (Elizabeth), Эллен Бёрстин (Mook), Розанна Аркетт (Mrs. Kennesaw), Дон Уинстон (Warren), Майкл Паркс (Dr. Banyard), Марк Дэймон (Wayland's Father), Дж. К. Куин (Priest)-Мировая премьера: 31 августа 1997-Описание: Совершено ужасное преступление — жестоко убита молодая девушка. Основной подозреваемый — капризный отпрыск богатых родителей Джемс Уолтер Уэйланд. Но убийца ли он? Это покажут напряженные допросы, которые превратятся в захватывающую игру трех профессионалов, выведывающих друг у друга самые мрачные тайны. Удастся ли выяснить, кто перед нами — убийца, алкоголик и психопат или невинный человек, ставший жертвой обстоятельств? И кто допрашивает его — честные блюстители закона или хладнокровные мерзавцы? Их разделяет тонкая грань и между ними лишь беспристрастный детектор лжи…-Благодарности:
- .
- собственная запись перевода с телеканала ТВЦ в конце 90-х годов через видеомагнитофон и оцифровка с видеокассеты.
- синхронизация перевода.-На русский язык фильм озвучен телекомпанией ТВЦ.
Текст читают Виктор Бохон, Вячеслав Баранов, Владимир Герасимов и Елена Борзунова.-Рейтинг

MPAA: R - Лицам до 17 лет обязательно присутствие взрослого.-Качество видео: DVDRip
Формат видео: AVI -> //SAMPLE//
Видео: XviD, 720x304 (2.35:1), 25.000 fps, 2073 kbps avg
Аудио:
1 - 48 khz, AC3 Dolby Digital, 2/0 ch, ~192 kbps [ТВЦ] VHSRip
2 - 48 khz, AC3 Dolby Digital, 6/0 ch, ~640 kbps [Английский]

MediaInfo

General
Complete name : D:\Торрент Файлы\Будущие Релизы на Трекере\2.05 - 2.20 и более гб\Детектор Лжи (ТВЦ + Оригинал).avi
Format : AVI
Format/Info : Audio Video Interleave
Format profile : OpenDML
File size : 2.08 GiB
Duration : 1h 41mn
Overall bit rate : 2 924 Kbps
Writing application : VirtualDubMod 1.5.10.3 | www.virtualdub-fr.org || (build 2550/release)
Writing library : VirtualDubMod build 2550/release
Video
ID : 0
Format : MPEG-4 Visual
Format profile : Advanced Simple@L5
Format settings, BVOP : 1
Format settings, QPel : No
Format settings, GMC : No warppoints
Format settings, Matrix : Default (MPEG)
Codec ID : XVID
Codec ID/Hint : XviD
Duration : 1h 41mn
Bit rate : 2 073 Kbps
Width : 720 pixels
Height : 304 pixels
Display aspect ratio : 2.35:1
Frame rate : 25.000 fps
Color space : YUV
Chroma subsampling : 4:2:0
Bit depth : 8 bits
Scan type : Progressive
Compression mode : Lossy
Bits/(Pixel*Frame) : 0.379
Stream size : 1.48 GiB (71%)
Writing library : XviD 1.2.1 (UTC 2008-12-04)
Audio #1
ID : 1
Format : AC-3
Format/Info : Audio Coding 3
Mode extension : CM (complete main)
Format settings, Endianness : Big
Codec ID : 2000
Duration : 1h 41mn
Bit rate mode : Constant
Bit rate : 192 Kbps
Channel(s) : 2 channels
Channel positions : Front: L R
Sampling rate : 48.0 KHz
Compression mode : Lossy
Stream size : 140 MiB (7%)
Alignment : Split accross interleaves
Interleave, duration : 40 ms (1.00 video frame)
Interleave, preload duratio : 500 ms
Audio #2
ID : 2
Format : AC-3
Format/Info : Audio Coding 3
Mode extension : CM (complete main)
Format settings, Endianness : Big
Codec ID : 2000
Duration : 1h 41mn
Bit rate mode : Constant
Bit rate : 640 Kbps
Channel(s) : 6 channels
Channel positions : Front: L C R, Side: L R, LFE
Sampling rate : 48.0 KHz
Compression mode : Lossy
Stream size : 467 MiB (22%)
Alignment : Split accross interleaves
Interleave, duration : 40 ms (1.00 video frame)
Interleave, preload duratio : 500 ms

Скриншот c названием фильма

Скриншоты

To download the content you need:
1. Download and install torrent client [for Windows] or for mobile system
2. Click on [Download]
Attention.
If the test YOU are NOT a ROBOT - does not work, then You are using an outdated browser.
Install the current browser and click on [Download]

Do not work with Yandex browser. Uploading files to them is erroneous.
Security: torrent client is allowed by Kaspersky.

[en.asmlocator.ru].t4671.torrent 
Torrent: Registered [ 2015-12-02 05:40 ] · F6B740AA1F4CE3F90DAB6A6F20D09C9C53453D35

Download .torrent

Download

11 KB

Status: checked
Completed: 0 times
Size: 2.08 GB
terms.php
[Profile] [PM]
Display posts:    
Reply to topic

Current time is: 29-May 10:51

All times are UTC ± 0



You cannot post new topics in this forum
You cannot reply to topics in this forum
You cannot edit your posts in this forum
You cannot delete your posts in this forum
You cannot vote in polls in this forum
You cannot attach files in this forum
You can download files in this forum
Верим фактам, а не вранью Путина! Факт, что Правительство ведёт Россию к истреблению.
Так как численность населения падает, даже не смотря на приток эмигрантов!
Русская нация вымирает и вырождается, смешиваясь с эмигрантами!
Факт, что военных и граждан предприятий заставляют голосовать за партию Единая Россия и Путина
ПОД СТРАХОМ УВОЛЬНЕНИЯ!
Нам не нужно Правительство, блокирующее личную жизнь, интернет, нарушающее сохранность данных.
Все эти действия финансируются за счёт народа!