Семейство Аддамсов / Семейка Аддамс / The Addams Family (Барри Зонненфельд / Barry Sonnenfeld) [1991, США, фэнтези, комедия, семейный, VHSRip] [FullScreen] AVO (Сергей Визгунов)

Reply to topic
DL-List and Torrent activity
Size:  1.37 GB   |    Registered:  4 years 6 months   |    Completed:  0 times

Seeder not seen: 2 years 6 months

 
   
 
 
Author Message

star21 ®

Gender: Female

Longevity: 4 years 7 months

Posts: 551945

Location: Екатеринбург

Post 01-Dec-2015 13:59

[Quote]

Семейка Аддамс / The Addams Family
[FullScreen]
Страна: США
Жанр: фэнтези, комедия, семейный
Год выпуска: 1991
Продолжительность: 01:36:13
Перевод: Авторский (одноголосый закадровый) Сергей Визгунов
Cубтитры: нет
Режиссер: Барри Зонненфельд / Barry Sonnenfeld
В ролях: Анджелика Хьюстон, Рауль Хулиа, Кристофер Ллойд, Элизабет Уилсон, Кристина Риччи, Джудит Мэлина, Дэн Хедайя, Карел Стрёйкен, Пол Бенедикт, Кристофер Харт...
Описание: Аннотация от alenavova
В старинном доме, напоминающем средневековый замок снаружи и камеру пыток изнутри, проживает семейка Эддамс: супруги Мортишиа и Гомес, их дети (дочка Уэнсдэй и сынок Пагсли), бабушка-колдунья, неразговорчивый верзила Лаш и живущая самостоятельной жизнью кисть человеческой руки без хозяина. Всех обитателей дома волнует только одна проблема - бесследное исчезновение Фестера Эддамса, старшего брата Гомеса, пропавшего 25 лет назад, по слухам, где-то в Бермудском треугольнике... Любители душераздирающих шуточек и леденящих кровь приколов не будут разочарованы, посмотрев эту блистательную комедию ужасов, снятую по мотивам комиксов Чарлза Эддамса, которые уже были экранизированы в мультипликационном и телевариантах и имели больший зрительский успех. Режиссерский дебют оператора Бэрри Сонненфелда также стал одним из самых кассовых фильмов 1992 года.
Доп. информация: Оцифровка VHS (личный архив) и получение VHSRip alenavova
Эксклюзив для rutracker.org. При размещении данного релиза на других сайтах ссылка на автора alenavova обязательна.

Релиз
Сэмпл: https://yadi.sk/i/OesTS5UYkXvxj
Качество видео: VHSRip
Формат видео: AVI
Видео: 704x528 (1.33:1), 25 fps, XviD build 73 ~1833 kbps avg, 0.20 bit/pixel
Аудио: 48 kHz, AC3 Dolby Digital, 2/0 (L,R) ch, ~192 kbps

MediaInfo

Семейство Адамсов - The Addams Family (by alenavova).avi
Format : AVI
Format/Info : Audio Video Interleave
File size : 1.37 GiB
Duration : 1h 36mn
Overall bit rate : 2 036 Kbps
Movie name : Семейство Адамсов - The Addams Family (by alenavova)
Director : by alenavova
Writing application : VirtualDubMod 1.5.10.3 | www.virtualdub-fr.org || (build 2550/release)
Copyright : Edich2
Comment : RuTracker.org
Video
ID : 0
Format : MPEG-4 Visual
Format profile : Advanced Simple@L5
Format settings, BVOP : 2
Format settings, QPel : No
Format settings, GMC : No warppoints
Format settings, Matrix : Custom
Codec ID : XVID
Codec ID/Hint : XviD
Duration : 1h 36mn
Bit rate : 1 834 Kbps
Width : 704 pixels
Height : 528 pixels
Display aspect ratio : 4:3
Frame rate : 25.000 fps
Color space : YUV
Chroma subsampling : 4:2:0
Bit depth : 8 bits
Scan type : Progressive
Compression mode : Lossy
Bits/(Pixel*Frame) : 0.197
Stream size : 1.23 GiB (90%)
Writing library : XviD 73
Audio
ID : 1
Format : AC-3
Format/Info : Audio Coding 3
Mode extension : CM (complete main)
Format settings, Endianness : Big
Codec ID : 2000
Duration : 1h 36mn
Bit rate mode : Constant
Bit rate : 192 Kbps
Channel(s) : 2 channels
Channel positions : Front: L R
Sampling rate : 48.0 KHz
Bit depth : 16 bits
Compression mode : Lossy
Stream size : 132 MiB (9%)
Alignment : Split accross interleaves
Interleave, duration : 40 ms (1.00 video frame)
Interleave, preload duration : 500 ms

Скриншоты


To download the content you need:
1. Download and install torrent client [for Windows] or for mobile system
2. Click on [Download]
Attention.
If the test YOU are NOT a ROBOT - does not work, then You are using an outdated browser.
Install the current browser and click on [Download]

Do not work with Yandex browser. Uploading files to them is erroneous.
Security: torrent client is allowed by Kaspersky.

[en.asmlocator.ru].t4580.torrent 
Torrent: Registered [ 2015-12-01 13:55 ] · 7675AE676B02FCD1769A5F311EDFB0EDC81DB78F

Download .torrent

Download

14 KB

Status: checked
Completed: 0 times
Size: 1.37 GB
terms.php
[Profile] [PM]
Display posts:    
Reply to topic

Current time is: 06-Jun 08:41

All times are UTC ± 0



You cannot post new topics in this forum
You cannot reply to topics in this forum
You cannot edit your posts in this forum
You cannot delete your posts in this forum
You cannot vote in polls in this forum
You cannot attach files in this forum
You can download files in this forum
Верим фактам, а не вранью Путина! Факт, что Правительство ведёт Россию к истреблению.
Так как численность населения падает, даже не смотря на приток эмигрантов!
Русская нация вымирает и вырождается, смешиваясь с эмигрантами!
Факт, что военных и граждан предприятий заставляют голосовать за партию Единая Россия и Путина
ПОД СТРАХОМ УВОЛЬНЕНИЯ!
Нам не нужно Правительство, блокирующее личную жизнь, интернет, нарушающее сохранность данных.
Все эти действия финансируются за счёт народа!