[SACD-R][OF] Franco Battiato - Last Summer Dance (Live) - 2003 (Pop, World Music, Easy Listening)

Reply to topic
DL-List and Torrent activity
Size:  6.16 GB   |    Registered:  2 years 6 months   |    Completed:  0 times

Seeder not seen: Never

 
   
 
 
Author Message

star21 ®

Gender: Female

Longevity: 4 years 6 months

Posts: 551945

Location: Екатеринбург

Post 13-Nov-2017 03:20

[Quote]

Franco Battiato / Last Summer Dance (Live) Формат записи/Источник записи: [SACD-R][OF]
Наличие водяных знаков: Нет
Год издания/переиздания диска: 2003
Жанр: Pop, World Music, Easy Listening
Издатель (лейбл): Columbia - Sony Music (Italy) - COL 513706-2
Продолжительность: 48:10 + 49:17
Наличие сканов в содержимом раздачи: Да (сканы)Контейнер: ISO (*.iso)
Тип рипа: imageРазрядность: 64(2,8 MHz/1 Bit)
Формат: DST64
Количество каналов: 2.0; 5.1

Треклист:

Disc 1:01. Shackleton
02. Atlantide
03. Strani Giorni
04. Shock In My Town
05. Impressioni Di Settembre
06. L'oceano Di Silenzio
07. Delenda Carthago
08. E Ti Vengo A Cercare
09. E Stato Molto Bello
10. Il Mantello E La Spiga
11. Caffe De La Paix
12. Cura
13. Accetta Il ConsiglioDisc 2:14. L'incantesimo
15. Auto Da Fe
16. Mesopotamia
17. Lode All'inviolato
18. Magic Shop
19. Stranizza D'amuri
20. Stagione Dell'amore
21. Povera Patria
22. Medley
23. L'animale
24. L'era Del Cinghiale Bianco
25. Cuccuruccuccu
26. Centro Di Gravita Permanente

DR Log


Disc 1:

foobar2000 1.3.14 / Dynamic Range Meter 1.1.1
log date: 2017-05-19 11:28:31--------------------------------------------------------------------------------
Analyzed: Franco Battiato / Last Summer Dance - Live CD1
--------------------------------------------------------------------------------DR Peak RMS Duration Track
--------------------------------------------------------------------------------
DR13 -4.25 dB -23.14 dB 3:46 01-Shackleton
DR13 -3.66 dB -21.06 dB 3:11 02-Atlantide
DR13 -3.71 dB -19.54 dB 3:45 03-Strani Giorni
DR12 -4.08 dB -20.33 dB 3:57 04-Shock In My Town
DR12 -3.82 dB -20.29 dB 3:29 05-Impressioni Di Settembre
DR12 -7.60 dB -28.07 dB 4:00 06-L'Oceano di Silenzio
DR13 -3.79 dB -19.98 dB 3:19 07-Delenda Carthago
DR12 -3.54 dB -20.21 dB 3:47 08-E Ti Vengo A Cercare
DR13 -4.50 dB -25.15 dB 3:32 09-E' Stato Molto Bello
DR12 -3.52 dB -21.08 dB 3:58 10-Il Mantello e La Spiga
DR12 -3.77 dB -19.87 dB 3:40 11-Caffи De La Paix
DR13 -3.71 dB -22.08 dB 4:08 12-La Cura
DR14 -3.09 dB -22.54 dB 3:38 13-Accetta Il Consiglio
--------------------------------------------------------------------------------Number of tracks: 13
Official DR value: DR13Samplerate: 2822400 Hz / PCM Samplerate: 88200 Hz
Channels: 6
Bits per sample: 1
Bitrate: 16934 kbps
Codec: DST64
================================================================================--------------------------------------------------------------------------------
Analyzed: Franco Battiato / Last Summer Dance - Live CD1
--------------------------------------------------------------------------------DR Peak RMS Duration Track
--------------------------------------------------------------------------------
DR9 -4.28 dB -18.18 dB 3:46 01-Shackleton
DR10 -4.22 dB -16.29 dB 3:11 02-Atlantide
DR9 -4.06 dB -13.57 dB 3:45 03-Strani Giorni
DR8 -4.23 dB -14.93 dB 3:57 04-Shock In My Town
DR8 -4.11 dB -15.09 dB 3:29 05-Impressioni Di Settembre
DR11 -5.19 dB -21.17 dB 4:00 06-L'Oceano di Silenzio
DR9 -4.19 dB -14.77 dB 3:19 07-Delenda Carthago
DR9 -4.16 dB -16.13 dB 3:47 08-E Ti Vengo A Cercare
DR10 -4.36 dB -18.83 dB 3:32 09-E' Stato Molto Bello
DR8 -4.02 dB -14.79 dB 3:58 10-Il Mantello e La Spiga
DR8 -4.19 dB -14.16 dB 3:40 11-Caffи De La Paix
DR9 -4.05 dB -16.32 dB 4:08 12-La Cura
DR10 -4.06 dB -16.09 dB 3:38 13-Accetta Il Consiglio
--------------------------------------------------------------------------------Number of tracks: 13
Official DR value: DR9Samplerate: 2822400 Hz / PCM Samplerate: 88200 Hz
Channels: 2
Bits per sample: 1
Bitrate: 5645 kbps
Codec: DST64
================================================================================

Disc 2:

foobar2000 1.3.14 / Dynamic Range Meter 1.1.1
log date: 2017-05-19 11:56:38--------------------------------------------------------------------------------
Analyzed: Franco Battiato / Last Summer Dance - Live CD2
--------------------------------------------------------------------------------DR Peak RMS Duration Track
--------------------------------------------------------------------------------
DR13 -5.32 dB -24.27 dB 3:32 01-L'Incantesimo
DR13 -3.83 dB -20.29 dB 3:53 02-Auto da Fй
DR14 -4.04 dB -23.05 dB 4:21 03-Mesopotamia
DR13 -5.85 dB -26.45 dB 3:11 04-Lode All'Inviolato
DR13 -8.11 dB -29.07 dB 2:38 05-Magic Shop
DR14 -6.00 dB -27.10 dB 2:13 06-Stranizza D'Amuri
DR13 -4.65 dB -23.78 dB 2:50 07-La Stagione Dell'Amore
DR13 -7.46 dB -28.81 dB 3:47 08-Povera Patria
DR12 -3.55 dB -19.70 dB 8:24 09-Medley
DR12 -5.85 dB -24.20 dB 2:54 10-L'Animale
DR12 -3.68 dB -19.77 dB 3:03 11-L'Era Del Cinghiale Bianco
DR12 -3.82 dB -19.87 dB 4:11 12-Cuccuruccuccu
DR12 -3.49 dB -19.66 dB 4:19 13-Centro Di Gravitа Permanente
--------------------------------------------------------------------------------Number of tracks: 13
Official DR value: DR13Samplerate: 2822400 Hz / PCM Samplerate: 88200 Hz
Channels: 6
Bits per sample: 1
Bitrate: 16934 kbps
Codec: DST64
================================================================================--------------------------------------------------------------------------------
Analyzed: Franco Battiato / Last Summer Dance - Live CD2
--------------------------------------------------------------------------------DR Peak RMS Duration Track
--------------------------------------------------------------------------------
DR10 -4.54 dB -17.27 dB 3:32 01-L'Incantesimo
DR9 -4.16 dB -14.48 dB 3:53 02-Auto da Fй
DR9 -4.21 dB -16.23 dB 4:21 03-Mesopotamia
DR12 -4.38 dB -19.55 dB 3:11 04-Lode All'Inviolato
DR13 -6.14 dB -22.25 dB 2:38 05-Magic Shop
DR13 -4.58 dB -20.92 dB 2:13 06-Stranizza D'Amuri
DR10 -4.15 dB -16.56 dB 2:50 07-La Stagione Dell'Amore
DR13 -4.74 dB -22.06 dB 3:47 08-Povera Patria
DR8 -4.04 dB -13.44 dB 8:24 09-Medley
DR10 -4.47 dB -17.25 dB 2:54 10-L'Animale
DR8 -4.05 dB -13.57 dB 3:03 11-L'Era Del Cinghiale Bianco
DR9 -4.10 dB -14.02 dB 4:11 12-Cuccuruccuccu
DR7 -3.97 dB -13.34 dB 4:19 13-Centro Di Gravitа Permanente
--------------------------------------------------------------------------------Number of tracks: 13
Official DR value: DR10Samplerate: 2822400 Hz / PCM Samplerate: 88200 Hz
Channels: 2
Bits per sample: 1
Bitrate: 5645 kbps
Codec: DST64
================================================================================
Источник (релизер): SACD rip via PS3 to iso http://www.sa-cd.net/showtitle/1683

To download the content you need:
1. Download and install torrent client [for Windows] or for mobile system
2. Click on [Download]
Attention.
If the test YOU are NOT a ROBOT - does not work, then You are using an outdated browser.
Install the current browser and click on [Download]

Do not work with Yandex browser. Uploading files to them is erroneous.
Security: torrent client is allowed by Kaspersky.

[en.asmlocator.ru].t436122.torrent 
Torrent: Registered [ 2017-11-13 03:20 ] · 73FC8177AEE42A05B233FF06CF04571C2FC26A4E

Download .torrent

Download

17 KB

Status: checked
Completed: 0 times
Size: 6.16 GB
terms.php
[Profile] [PM]
Display posts:    
Reply to topic

Current time is: 31-May 13:13

All times are UTC ± 0



You cannot post new topics in this forum
You cannot reply to topics in this forum
You cannot edit your posts in this forum
You cannot delete your posts in this forum
You cannot vote in polls in this forum
You cannot attach files in this forum
You can download files in this forum
Верим фактам, а не вранью Путина! Факт, что Правительство ведёт Россию к истреблению.
Так как численность населения падает, даже не смотря на приток эмигрантов!
Русская нация вымирает и вырождается, смешиваясь с эмигрантами!
Факт, что военных и граждан предприятий заставляют голосовать за партию Единая Россия и Путина
ПОД СТРАХОМ УВОЛЬНЕНИЯ!
Нам не нужно Правительство, блокирующее личную жизнь, интернет, нарушающее сохранность данных.
Все эти действия финансируются за счёт народа!