[TR24][OF] Fishbach - A ta merci - 2017 (Electronic, Pop, Synth-pop, Indie Pop)

Reply to topic
DL-List and Torrent activity
Size:  488 MB   |    Registered:  2 years 6 months   |    Completed:  0 times

Seeder not seen: 1 year 3 months

 
   
 
 
Author Message

star21 ®

Gender: Female

Longevity: 4 years 6 months

Posts: 551945

Location: Екатеринбург

Post 13-Nov-2017 03:20

[Quote]

Fishbach / A ta merci Формат записи/Источник записи: [TR24][OF]
Наличие водяных знаков: Нет
Год издания/переиздания диска: 2017
Жанр: Electronic, Pop, Synth-pop, Indie Pop
Издатель (лейбл): A+LSO
Продолжительность: 00:42:12
Наличие сканов в содержимом раздачи: Front
Источник (релизер): qobuzКонтейнер: FLAC (*.flac)
Тип рипа: tracksРазрядность: 24/44,1
Формат: PCM
Количество каналов: 2.0Треклист:
01. Ma voie lactée
02. Y crois-tu
03. Eternité
04. Un beau langage
05. Un autre que moi
06. Feu
07. On me dit tu
08. Invisible désintégration de l'univers
09. Le château
10. Mortel
11. Le meilleur de la fête
12. A ta merci

DR Log

foobar2000 1.1.10 / Dynamic Range Meter 1.1.1log date: 2017-08-15 13:32:00--------------------------------------------------------------------------------Analyzed: Fishbach / A ta merci--------------------------------------------------------------------------------DR         Peak         RMS     Duration Track--------------------------------------------------------------------------------DR7       -0.51 dB    -9.04 dB      3:12 ?-Ma voie lactéeDR6       -0.51 dB    -8.84 dB      3:59 ?-Y crois-tuDR5       -0.51 dB    -6.75 dB      3:01 ?-EternitéDR5       -0.51 dB    -8.43 dB      3:45 ?-Un beau langageDR7       -0.51 dB    -9.00 dB      3:04 ?-Un autre que moiDR6       -0.51 dB    -8.50 dB      3:36 ?-FeuDR7       -0.51 dB    -8.44 dB      3:40 ?-On me dit tuDR8       -0.50 dB   -11.31 dB      3:50 ?-Invisible désintégration de l'universDR7       -0.51 dB    -8.99 dB      3:48 ?-Le châteauDR6       -0.51 dB    -7.97 dB      3:57 ?-MortelDR6       -0.51 dB    -8.42 dB      3:33 ?-Le meilleur de la fêteDR11      -0.54 dB   -13.82 dB      2:47 ?-A ta merci--------------------------------------------------------------------------------Number of tracks:  12Official DR value: DR7Samplerate:        44100 HzChannels:          2Bits per sample:   24Bitrate:           1405 kbpsCodec:             FLAC================================================================================

Состав

Bass, Piano, Keyboards, Programmed By, Drums, Guitar – Xavier Thiry
Drums, Guitar, Programmed By – Nicolas Lockhart (tracks: 1, 4, 6, 7, 8, 11)

Об исполнителе (группе)

Apparue sur la scène hexagonale avec un premier maxi éponyme en 2015, la chanteuse française (Flora) Fishbach impose son timbre viscéral et son univers pop synthétique francophone héritier des années 80 avec la parution de son premier opus studio en 2017, A ta merci, porté par les titres "Y crois-tu?", "Un autre que moi" ou "Béton mouillé", concrétisant le parcours obstiné d'une artiste habitée.
https://fr.wikipedia.org/wiki/Fishbach

To download the content you need:
1. Download and install torrent client [for Windows] or for mobile system
2. Click on [Download]
Attention.
If the test YOU are NOT a ROBOT - does not work, then You are using an outdated browser.
Install the current browser and click on [Download]

Do not work with Yandex browser. Uploading files to them is erroneous.
Security: torrent client is allowed by Kaspersky.

[en.asmlocator.ru].t436119.torrent 
Torrent: Registered [ 2017-11-13 03:20 ] · 916981133B892BEE2F0CCF0C3971043C8B8D171B

Download .torrent

Download

20 KB

Status: checked
Completed: 0 times
Size: 488 MB
terms.php
[Profile] [PM]
Display posts:    
Reply to topic

Current time is: 29-May 03:22

All times are UTC ± 0



You cannot post new topics in this forum
You cannot reply to topics in this forum
You cannot edit your posts in this forum
You cannot delete your posts in this forum
You cannot vote in polls in this forum
You cannot attach files in this forum
You can download files in this forum
Верим фактам, а не вранью Путина! Факт, что Правительство ведёт Россию к истреблению.
Так как численность населения падает, даже не смотря на приток эмигрантов!
Русская нация вымирает и вырождается, смешиваясь с эмигрантами!
Факт, что военных и граждан предприятий заставляют голосовать за партию Единая Россия и Путина
ПОД СТРАХОМ УВОЛЬНЕНИЯ!
Нам не нужно Правительство, блокирующее личную жизнь, интернет, нарушающее сохранность данных.
Все эти действия финансируются за счёт народа!