Борис I / Boris I (Борислав Шаралиев / Borislav Sharaliev) [1984, Болгария, драма, SATRip-AVC] DVO (СВ-Дубль по заказу ГТРК "Культура")

Reply to topic
DL-List and Torrent activity
Size:  2.93 GB   |    Registered:  4 years 6 months   |    Completed:  0 times

Seeder not seen: Never

 
   
 
 
Author Message

star21 ®

Gender: Female

Longevity: 4 years 6 months

Posts: 551945

Location: Екатеринбург

Post 30-Nov-2015 05:54

[Quote]

-Борис I / Boris I- Страна: Болгария
Жанр: драма
Год выпуска: 1984
Продолжительность: 04:05:22 (01:05:27 + 00:58:24 + 01:01:58 + 00:59:30)-Перевод: Профессиональный (двухголосый закадровый) СВ-Дубль по заказу ГТРК "Культура"
Cубтитры: нет-Режиссер: Борислав Шаралиев / Borislav Sharaliev-В ролях: Стефан Данаилов, Борис Луканов, Анета Петровска, Антоний Генов, Венцислав Кисёв, Коста Цонев, Пламен Дончев, Петар Петров, Иван Иванов, Янина Кашева-Описание: Лето 6371 года от сотворения мира, а от Христа 863 год. Хан болгаров был Борис. И с большой силой налетели враги, и воевал Борис 10 лет…
Вторая половина 9-го века. Молодой хан болгар Борис I объединил в одну державу два народа — болгар и славян. Он понимает, что укрепить государство ему поможет религия. И он совершает знаменательное событие — крещение. Князь Борис так-же понимает и другое — для государства необходим единый язык и письменность. Он приглашает учеников равноапостольных Кирилла и Мефодия для создания Орхидской и Преславской книжной школы.-Доп. информация:
[imdb]http://www.imdb.com/title/tt0344952[/imdb] Кинопоиск (нет оценки)
Фильм состоит из двух серий, каждая из которой разделена на две части:
1-я серия. "Крещение". Часть 1-я.
1-я серия. "Крещение". Часть 2-я.
2-я серия. "Слово о письменах". Часть 1-я.
2-я серия. "Слово о письменах". Часть 2-я.-Сравнительные пятиминутные сэмплы avi и полного фильма mkv.-Сэмпл: https://yadi.sk/i/awiE5nQpidHqn-Качество видео: SATRip-AVC
Формат видео: MKV
Видео кодек: H.264
Аудио кодек: AC3
Видео: 720x288 (2.50:1), 25 fps, ~1406 kbps
Аудио: 48 kHz, AC3 Dolby Digital, 2/0 (L,R) ch, ~192 kbps | DVO (СВ-Дубль)-

Подробнее о каждой части

1-я серия. "Крещение". Часть 1-я.

864 год от рождества Христова. Болгарский хан Борис решает установить долговечный мир с соседями и положить конец разделению между болгарами и славянами. Он принимает христианскую веру и становится князем Борисом.

1-я серия. "Крещение". Часть 2-я.

865 год. Греческие священники приходят в Болгарию крестить народ. Встает вопрос о богослужебном языке и подчинении церкви. Не желая принимать новую веру, языческая знать поднимает мятеж. Но Борис казнит бояр-бунтовщиков, спасая страну от гибели, и остаётся полновластным князем Болгарским.

2-я серия. "Слово о письменах". Часть 1-я.

Минуло два десятилетия, как болгары приняли христианство. Но греческий богослужебный язык так и остался для народа чужим и непонятым. Простые и ясные слова, что укрепят сердца и умы, приносят в дар ученики Кирилла и Мефодия. Монахи передают князю славянские письмена и азбуку, которой выучатся тысячи чтецов, писцов, учителей и священников. Построив на своей земле первую школу, Борис передает престол сыну Владимиру-Расате и удаляется в монастырь.

2-я серия. "Слово о письменах". Часть 2-я.

Монах Борис видит, что семена просвещения легли на благодатную почву. Но князь Владимир-Расате собирается разрушить храмы, вернуть старую веру и вновь разделить народ на два племени. Борис не может смотреть, как сын ставит Болгарию на грань пропасти.

-

MediaInfo

1_1 Крещение

General
Unique ID : 250559178298359457137450047503718600622 (0xBC7FF1434314410F839B15AA4E56CFAE)
Complete name : C:\Torrent\Борис I.1984.SATRip-AVC by Dmitrio7197\1_1 Крещение.mkv
Format : Matroska
Format version : Version 2
File size : 749 MiB
Duration : 1h 5mn
Overall bit rate : 1 599 Kbps
Encoded date : UTC 2015-08-24 10:19:55
Writing application : mkvmerge v6.1.0 ('Old Devil') built on Mar 4 2013 09:10:42
Writing library : libebml v1.3.0 + libmatroska v1.4.0
Video
ID : 1
Format : AVC
Format/Info : Advanced Video Codec
Format profile : High@L4.1
Format settings, CABAC : Yes
Format settings, ReFrames : 8 frames
Codec ID : V_MPEG4/ISO/AVC
Duration : 1h 5mn
Bit rate : 1 406 Kbps
Width : 720 pixels
Height : 288 pixels
Display aspect ratio : 2.500
Frame rate mode : Constant
Frame rate : 25.000 fps
Color space : YUV
Chroma subsampling : 4:2:0
Bit depth : 8 bits
Scan type : Progressive
Bits/(Pixel*Frame) : 0.271
Stream size : 644 MiB (86%)
Writing library : x264 core 130 r2273 b3065e6
Encoding settings : cabac=1 / ref=8 / deblock=1:0:0 / analyse=0x3:0x113 / me=umh / subme=11 / psy=1 / psy_rd=1.00:0.00 / mixed_ref=1 / me_range=24 / chroma_me=1 / trellis=2 / 8x8dct=1 / cqm=0 / deadzone=21,11 / fast_pskip=1 / chroma_qp_offset=-2 / threads=6 / lookahead_threads=1 / sliced_threads=0 / nr=0 / decimate=0 / interlaced=0 / bluray_compat=0 / constrained_intra=0 / bframes=8 / b_pyramid=2 / b_adapt=1 / b_bias=0 / direct=3 / weightb=1 / open_gop=0 / weightp=2 / keyint=250 / keyint_min=25 / scenecut=40 / intra_refresh=0 / rc_lookahead=40 / rc=2pass / mbtree=1 / bitrate=1406 / ratetol=1.0 / qcomp=0.60 / qpmin=0 / qpmax=69 / qpstep=4 / cplxblur=20.0 / qblur=0.5 / ip_ratio=1.40 / aq=1:1.00
Default : Yes
Forced : No
Audio
ID : 2
Format : AC-3
Format/Info : Audio Coding 3
Mode extension : CM (complete main)
Format settings, Endianness : Big
Codec ID : A_AC3
Duration : 1h 5mn
Bit rate mode : Constant
Bit rate : 192 Kbps
Channel(s) : 2 channels
Channel positions : Front: L R
Sampling rate : 48.0 KHz
Bit depth : 16 bits
Compression mode : Lossy
Stream size : 89.9 MiB (12%)
Default : Yes
Forced : No

1_2 Крещение

General
Unique ID : 176839324034795854795574376225955147498 (0x850A03D3C9C5C8DF962CED68ABC86EEA)
Complete name : C:\Torrent\Борис I.1984.SATRip-AVC by Dmitrio7197\1_2 Крещение.mkv
Format : Matroska
Format version : Version 2
File size : 749 MiB
Duration : 58mn 24s
Overall bit rate : 1 793 Kbps
Encoded date : UTC 2015-08-25 12:22:40
Writing application : mkvmerge v6.1.0 ('Old Devil') built on Mar 4 2013 09:10:42
Writing library : libebml v1.3.0 + libmatroska v1.4.0
Video
ID : 1
Format : AVC
Format/Info : Advanced Video Codec
Format profile : High@L4.1
Format settings, CABAC : Yes
Format settings, ReFrames : 8 frames
Codec ID : V_MPEG4/ISO/AVC
Duration : 58mn 24s
Bit rate : 1 599 Kbps
Width : 720 pixels
Height : 288 pixels
Display aspect ratio : 2.500
Frame rate mode : Constant
Frame rate : 25.000 fps
Color space : YUV
Chroma subsampling : 4:2:0
Bit depth : 8 bits
Scan type : Progressive
Bits/(Pixel*Frame) : 0.308
Stream size : 654 MiB (87%)
Writing library : x264 core 130 r2273 b3065e6
Encoding settings : cabac=1 / ref=8 / deblock=1:0:0 / analyse=0x3:0x113 / me=umh / subme=11 / psy=1 / psy_rd=1.00:0.00 / mixed_ref=1 / me_range=24 / chroma_me=1 / trellis=2 / 8x8dct=1 / cqm=0 / deadzone=21,11 / fast_pskip=1 / chroma_qp_offset=-2 / threads=6 / lookahead_threads=1 / sliced_threads=0 / nr=0 / decimate=0 / interlaced=0 / bluray_compat=0 / constrained_intra=0 / bframes=8 / b_pyramid=2 / b_adapt=1 / b_bias=0 / direct=3 / weightb=1 / open_gop=0 / weightp=2 / keyint=250 / keyint_min=25 / scenecut=40 / intra_refresh=0 / rc_lookahead=40 / rc=2pass / mbtree=1 / bitrate=1599 / ratetol=1.0 / qcomp=0.60 / qpmin=0 / qpmax=69 / qpstep=4 / cplxblur=20.0 / qblur=0.5 / ip_ratio=1.40 / aq=1:1.00
Default : Yes
Forced : No
Audio
ID : 2
Format : AC-3
Format/Info : Audio Coding 3
Mode extension : CM (complete main)
Format settings, Endianness : Big
Codec ID : A_AC3
Duration : 58mn 24s
Bit rate mode : Constant
Bit rate : 192 Kbps
Channel(s) : 2 channels
Channel positions : Front: L R
Sampling rate : 48.0 KHz
Bit depth : 16 bits
Compression mode : Lossy
Stream size : 80.2 MiB (11%)
Default : Yes
Forced : No

2_1 Слово о письменах

General
Unique ID : 180042193556196698389054951795297070876 (0x8772DD7C96658E9AA15435919DA7AF1C)
Complete name : C:\Torrent\Борис I.1984.SATRip-AVC by Dmitrio7197\2_1 Слово о письменах.mkv
Format : Matroska
Format version : Version 2
File size : 749 MiB
Duration : 1h 1mn
Overall bit rate : 1 690 Kbps
Encoded date : UTC 2015-08-26 09:52:38
Writing application : mkvmerge v6.1.0 ('Old Devil') built on Mar 4 2013 09:10:42
Writing library : libebml v1.3.0 + libmatroska v1.4.0
Video
ID : 1
Format : AVC
Format/Info : Advanced Video Codec
Format profile : High@L4.1
Format settings, CABAC : Yes
Format settings, ReFrames : 8 frames
Codec ID : V_MPEG4/ISO/AVC
Duration : 1h 1mn
Bit rate : 1 496 Kbps
Width : 720 pixels
Height : 288 pixels
Display aspect ratio : 2.500
Frame rate mode : Constant
Frame rate : 25.000 fps
Color space : YUV
Chroma subsampling : 4:2:0
Bit depth : 8 bits
Scan type : Progressive
Bits/(Pixel*Frame) : 0.289
Stream size : 649 MiB (87%)
Writing library : x264 core 130 r2273 b3065e6
Encoding settings : cabac=1 / ref=8 / deblock=1:0:0 / analyse=0x3:0x113 / me=umh / subme=11 / psy=1 / psy_rd=1.00:0.00 / mixed_ref=1 / me_range=24 / chroma_me=1 / trellis=2 / 8x8dct=1 / cqm=0 / deadzone=21,11 / fast_pskip=1 / chroma_qp_offset=-2 / threads=6 / lookahead_threads=1 / sliced_threads=0 / nr=0 / decimate=0 / interlaced=0 / bluray_compat=0 / constrained_intra=0 / bframes=8 / b_pyramid=2 / b_adapt=1 / b_bias=0 / direct=3 / weightb=1 / open_gop=0 / weightp=2 / keyint=250 / keyint_min=25 / scenecut=40 / intra_refresh=0 / rc_lookahead=40 / rc=2pass / mbtree=1 / bitrate=1496 / ratetol=1.0 / qcomp=0.60 / qpmin=0 / qpmax=69 / qpstep=4 / cplxblur=20.0 / qblur=0.5 / ip_ratio=1.40 / aq=1:1.00
Default : Yes
Forced : No
Audio
ID : 2
Format : AC-3
Format/Info : Audio Coding 3
Mode extension : CM (complete main)
Format settings, Endianness : Big
Codec ID : A_AC3
Duration : 1h 1mn
Bit rate mode : Constant
Bit rate : 192 Kbps
Channel(s) : 2 channels
Channel positions : Front: L R
Sampling rate : 48.0 KHz
Bit depth : 16 bits
Compression mode : Lossy
Stream size : 85.1 MiB (11%)
Default : Yes
Forced : No

2_2 Слово о письменах

General
Unique ID : 215564112897495354941544748856635631597 (0xA22C2353BC58389A9B880806466527ED)
Complete name : C:\Torrent\Борис I.1984.SATRip-AVC by Dmitrio7197\2_2 Слово о письменах.mkv
Format : Matroska
Format version : Version 2
File size : 749 MiB
Duration : 59mn 30s
Overall bit rate : 1 760 Kbps
Encoded date : UTC 2015-08-27 09:31:24
Writing application : mkvmerge v6.1.0 ('Old Devil') built on Mar 4 2013 09:10:42
Writing library : libebml v1.3.0 + libmatroska v1.4.0
Video
ID : 1
Format : AVC
Format/Info : Advanced Video Codec
Format profile : High@L4.1
Format settings, CABAC : Yes
Format settings, ReFrames : 8 frames
Codec ID : V_MPEG4/ISO/AVC
Duration : 59mn 30s
Bit rate : 1 566 Kbps
Width : 720 pixels
Height : 288 pixels
Display aspect ratio : 2.500
Frame rate mode : Constant
Frame rate : 25.000 fps
Color space : YUV
Chroma subsampling : 4:2:0
Bit depth : 8 bits
Scan type : Progressive
Bits/(Pixel*Frame) : 0.302
Stream size : 652 MiB (87%)
Writing library : x264 core 130 r2273 b3065e6
Encoding settings : cabac=1 / ref=8 / deblock=1:0:0 / analyse=0x3:0x113 / me=umh / subme=11 / psy=1 / psy_rd=1.00:0.00 / mixed_ref=1 / me_range=24 / chroma_me=1 / trellis=2 / 8x8dct=1 / cqm=0 / deadzone=21,11 / fast_pskip=1 / chroma_qp_offset=-2 / threads=6 / lookahead_threads=1 / sliced_threads=0 / nr=0 / decimate=0 / interlaced=0 / bluray_compat=0 / constrained_intra=0 / bframes=8 / b_pyramid=2 / b_adapt=1 / b_bias=0 / direct=3 / weightb=1 / open_gop=0 / weightp=2 / keyint=250 / keyint_min=25 / scenecut=40 / intra_refresh=0 / rc_lookahead=40 / rc=2pass / mbtree=1 / bitrate=1566 / ratetol=1.0 / qcomp=0.60 / qpmin=0 / qpmax=69 / qpstep=4 / cplxblur=20.0 / qblur=0.5 / ip_ratio=1.40 / aq=1:1.00
Default : Yes
Forced : No
Audio
ID : 2
Format : AC-3
Format/Info : Audio Coding 3
Mode extension : CM (complete main)
Format settings, Endianness : Big
Codec ID : A_AC3
Duration : 59mn 30s
Bit rate mode : Constant
Bit rate : 192 Kbps
Channel(s) : 2 channels
Channel positions : Front: L R
Sampling rate : 48.0 KHz
Bit depth : 16 bits
Compression mode : Lossy
Stream size : 81.7 MiB (11%)
Default : Yes
Forced : No

Скриншот c названием фильма

-

To download the content you need:
1. Download and install torrent client [for Windows] or for mobile system
2. Click on [Download]
Attention.
If the test YOU are NOT a ROBOT - does not work, then You are using an outdated browser.
Install the current browser and click on [Download]

Do not work with Yandex browser. Uploading files to them is erroneous.
Security: torrent client is allowed by Kaspersky.

[en.asmlocator.ru].t4304.torrent 
Torrent: Registered [ 2015-11-30 05:45 ] · 73C68E162D176DA52F0DC8EC0CD6D2BF290645E3

Download .torrent

Download

15 KB

Status: checked
Completed: 0 times
Size: 2.93 GB
terms.php
[Profile] [PM]
Display posts:    
Reply to topic

Current time is: 03-Jun 03:34

All times are UTC ± 0



You cannot post new topics in this forum
You cannot reply to topics in this forum
You cannot edit your posts in this forum
You cannot delete your posts in this forum
You cannot vote in polls in this forum
You cannot attach files in this forum
You can download files in this forum
Верим фактам, а не вранью Путина! Факт, что Правительство ведёт Россию к истреблению.
Так как численность населения падает, даже не смотря на приток эмигрантов!
Русская нация вымирает и вырождается, смешиваясь с эмигрантами!
Факт, что военных и граждан предприятий заставляют голосовать за партию Единая Россия и Путина
ПОД СТРАХОМ УВОЛЬНЕНИЯ!
Нам не нужно Правительство, блокирующее личную жизнь, интернет, нарушающее сохранность данных.
Все эти действия финансируются за счёт народа!