Жаждущие крови / Blood Stalkers (Роберт Морган / Robert W. Morgan) [1976, США, триллер, ужасы, бэквудс, VHSRip] VO (Хэм)

Reply to topic
DL-List and Torrent activity
Size:  750 MB   |    Registered:  4 years 5 months   |    Completed:  0 times

Seeder not seen: Never

 
   
 
 
Author Message

star21 ®

Gender: Female

Longevity: 4 years 6 months

Posts: 551945

Location: Екатеринбург

Post 30-Nov-2015 05:52

[Quote]

Жаждущие крови / Blood Stalkers
Страна: США
Жанр: триллер, ужасы, бэквудс
Год выпуска: 1976
Продолжительность: 1:31:02
Перевод: Одноголосый закадровый Хэм
Cубтитры: нет
Режиссер: Роберт Морган / Robert W. Morgan
В ролях: Джерри Альберт, Кен Миллер, Херб Гольдштейн, Тони Крэбтри
Описание: Четверо друзей едут на отдых в хижину, затерянную во флоридской глуши. На заправке они встречают трёх зловещих гопников под предводительством старого хрыча, который рассказывает, что на тамошних болотах водятся некие "жаждущие крови" твари. Гостям заботливо предлагают свалить обратно и пожить ещё немного, но бесстрашный лидер городских плюёт на предостережения старожила.
Доп. информация: [imdb]http://www.imdb.com/title/tt0077245[/imdb]
Сэмпл: http://multi-up.com/1069725
Качество видео: VHSRip
Формат видео: AVI
Видео: XVID, 1,417:1, 544x384, 29,970 Fps, 1012 Kbps
Аудио: MP3, 48 Khz, 128 Kbps, 2.0

MediaInfo

General
Complete name : E:\Blood Stalkers 1976.avi
Format : AVI
Format/Info : Audio Video Interleave
File size : 750 MiB
Duration : 1h 31mn
Overall bit rate : 1 151 Kbps
Writing application : FairUse Wizard - http://fairusewizard.com
Writing library : VirtualDub build 32817/release
Video
ID : 0
Format : MPEG-4 Visual
Format profile : Advanced Simple@L5
Format settings, BVOP : 1
Format settings, QPel : No
Format settings, GMC : No warppoints
Format settings, Matrix : Default (H.263)
Muxing mode : Packed bitstream
Codec ID : XVID
Codec ID/Hint : XviD
Duration : 1h 31mn
Bit rate : 1 012 Kbps
Width : 544 pixels
Height : 384 pixels
Display aspect ratio : 1.417
Frame rate : 29.970 fps
Color space : YUV
Chroma subsampling : 4:2:0
Bit depth : 8 bits
Scan type : Progressive
Compression mode : Lossy
Bits/(Pixel*Frame) : 0.162
Stream size : 659 MiB (88%)
Writing library : XviD 1.1.0 (UTC 2005-11-22)
Audio
ID : 1
Format : MPEG Audio
Format version : Version 1
Format profile : Layer 3
Mode : Joint stereo
Mode extension : MS Stereo
Codec ID : 55
Codec ID/Hint : MP3
Duration : 1h 31mn
Bit rate mode : Constant
Bit rate : 128 Kbps
Channel(s) : 2 channels
Sampling rate : 48.0 KHz
Compression mode : Lossy
Stream size : 83.4 MiB (11%)
Alignment : Split accross interleaves
Interleave, duration : 33 ms (1.00 video frame)
Interleave, preload duration : 500 ms

Скриншоты

To download the content you need:
1. Download and install torrent client [for Windows] or for mobile system
2. Click on [Download]
Attention.
If the test YOU are NOT a ROBOT - does not work, then You are using an outdated browser.
Install the current browser and click on [Download]

Do not work with Yandex browser. Uploading files to them is erroneous.
Security: torrent client is allowed by Kaspersky.

[en.asmlocator.ru].t4193.torrent 
Torrent: Registered [ 2015-11-30 05:45 ] · 1FB6E33B857763D2F942E510A16EE7951426044C

Download .torrent

Download

15 KB

Status: checked
Completed: 0 times
Size: 750 MB
terms.php
[Profile] [PM]
Display posts:    
Reply to topic

Current time is: 29-May 11:16

All times are UTC ± 0



You cannot post new topics in this forum
You cannot reply to topics in this forum
You cannot edit your posts in this forum
You cannot delete your posts in this forum
You cannot vote in polls in this forum
You cannot attach files in this forum
You can download files in this forum
Верим фактам, а не вранью Путина! Факт, что Правительство ведёт Россию к истреблению.
Так как численность населения падает, даже не смотря на приток эмигрантов!
Русская нация вымирает и вырождается, смешиваясь с эмигрантами!
Факт, что военных и граждан предприятий заставляют голосовать за партию Единая Россия и Путина
ПОД СТРАХОМ УВОЛЬНЕНИЯ!
Нам не нужно Правительство, блокирующее личную жизнь, интернет, нарушающее сохранность данных.
Все эти действия финансируются за счёт народа!