Опасные Связи / Dangerous Liasons (Стивен Фрирз / Stephen Frears) [1988, США, Великобритания, драма, мелодрама, BDRip] DUB (Варус Видео) + MVO (ОРТ)

Reply to topic
DL-List and Torrent activity
Size:  1.46 GB   |    Registered:  4 years 6 months   |    Completed:  0 times

Seeder not seen: Never

 
   
 
 
Author Message

star21 ®

Gender: Female

Longevity: 4 years 7 months

Posts: 551945

Location: Екатеринбург

Post 30-Nov-2015 05:51

[Quote]

Опасные Связи / Dangerous Liasons
Год выпуска: 1988
Страна: США, Великобритания
Жанр: драма, мелодрама
Продолжительность: 01:59:53
Перевод: Профессиональный (дублированный) - Варус Видео
Перевод 2: Профессиональный (многоголосый закадровый) - ОРТ
Cубтитры: нет
Оригинальная аудиодорожка: английский
Режиссер: Стивен Фрирз / Stephen Frears
В ролях: Гленн Клоуз (Marquise Isabelle de Merteuil), Джон Малкович (Vicomte Sébastien de Valmont), Мишель Пфайффер (Madame de Tourvel), Свузи Кёрц (Madame de Volanges), Киану Ривз (Le Chevalier Raphael Danceny), Милдред Нэтвик (Madame de Rosemonde), Ума Турман (Cécile de Volanges), Питер Капальди (Azolan), Джо Шеридан (Georges), Валери Гоган (Julie)-Мировая премьера: 16 декабря 1988-Описание: Франция XVIII столетия. Виконт Вальмон и маркиза де Мертей ведут опасную, чреватую разбитыми сердцами и искалеченными судьбами, игру. Маркиза, желая отомстить давнему любовнику Жеркуру, обещает Вальмону свою благосклонность, если он соблазнит Сесиль Воланж, юную невесту Жеркура. Вместо этого Вальмон увлекается госпожой де Турвель, совершенно забыв про договор, и маркизе приходится искать обходные пути. Невольно для себя безжалостный сердцеед Вальмон попадает под чары добродетельной жены президента Турвеля, задумываясь о той цене, которую придется заплатить всем участникам случившейся интриги.-Благодарности:
- .
- собственная оцифровка дубляжа со своей лицензионной видеокассеты от видео-компании Варус Видео.
- собственная запись перевода с телеканала ОРТ в начале 2000-х годов через видеомагнитофон и оцифровка с видеокассеты.
- синхронизация переводов.-Данные переводы на трекере появляются впервые.
На русский язык фильм дублирован на студии Варус Видео.
Роли дублировали Наталья Вихрова, Андрей Ташков, Анна Каменкова, Марина Дюжева, Вячеслав Баранов, Светлана Харлап, Лариса Данилина и Василий Куприянов.
На русский язык фильм озвучен кинокомпанией Эй Би Видео по заказу Общественного Российского Телевидения.
Текст читают Александр Новиков, Ольга Гаспарова и Мария Овчинникова.-Рейтинг

MPAA: R - Лицам до 17 лет обязательно присутствие взрослого.-Качество видео: BDRip
Формат видео: AVI -> //SAMPLE//
Видео: XviD, 704x400 (16:9), 23.976 fps, 1341 kbps avg
Аудио:
1 - 48 khz, AC3 Dolby Digital, 2/0 (L,R) ch, ~192 kbps [Варус Видео] VHSRip
2 - 48 khz, AC3 Dolby Digital, 2/0 (L,R) ch, ~192 kbps [ОРТ] VHSRip-Обновление релиза от 20.10.2015. Причина:
Добавлен в раздачу ещё один раритетный для трекера дубляж от Варус Видео.
Просьба пере-скачать торрент!

MediaInfo

General
Complete name : D:\Релизы на Трекере\Опасные Связи (ОРТ + Original Eng).avi
Format : AVI
Format/Info : Audio Video Interleave
File size : 1.46 GiB
Duration : 1h 59mn
Overall bit rate : 1 739 Kbps
Movie name : Dangerous Liaisons
Director : Rip by MC
Genre : Drama
Writing application : VirtualDubMod 1.5.10.3 | www.virtualdub-fr.org || (build 2550/release)
Writing library : VirtualDubMod build 2550/release
Original source form/Name : Movie
Video
ID : 0
Format : MPEG-4 Visual
Format profile : Advanced Simple@L5
Format settings, BVOP : 2
Format settings, QPel : No
Format settings, GMC : No warppoints
Format settings, Matrix : Default (MPEG)
Codec ID : XVID
Codec ID/Hint : XviD
Duration : 1h 59mn
Bit rate : 1 341 Kbps
Width : 704 pixels
Height : 400 pixels
Display aspect ratio : 16:9
Frame rate : 23.976 fps
Color space : YUV
Chroma subsampling : 4:2:0
Bit depth : 8 bits
Scan type : Progressive
Compression mode : Lossy
Bits/(Pixel*Frame) : 0.199
Stream size : 1.12 GiB (77%)
Writing library : XviD 64
Audio #1
ID : 1
Format : AC-3
Format/Info : Audio Coding 3
Mode extension : CM (complete main)
Format settings, Endianness : Big
Codec ID : 2000
Duration : 1h 59mn
Bit rate mode : Constant
Bit rate : 192 Kbps
Channel(s) : 2 channels
Channel positions : Front: L R
Sampling rate : 48.0 KHz
Compression mode : Lossy
Stream size : 165 MiB (11%)
Alignment : Split accross interleaves
Interleave, duration : 42 ms (1.00 video frame)
Interleave, preload duratio : 500 ms
Audio #2
ID : 2
Format : AC-3
Format/Info : Audio Coding 3
Mode extension : CM (complete main)
Format settings, Endianness : Big
Codec ID : 2000
Duration : 1h 59mn
Bit rate mode : Constant
Bit rate : 192 Kbps
Channel(s) : 2 channels
Channel positions : Front: L R
Sampling rate : 48.0 KHz
Compression mode : Lossy
Stream size : 165 MiB (11%)
Alignment : Split accross interleaves
Interleave, duration : 42 ms (1.00 video frame)
Interleave, preload duratio : 500 ms

Скриншот c названием фильма

Скриншоты

To download the content you need:
1. Download and install torrent client [for Windows] or for mobile system
2. Click on [Download]
Attention.
If the test YOU are NOT a ROBOT - does not work, then You are using an outdated browser.
Install the current browser and click on [Download]

Do not work with Yandex browser. Uploading files to them is erroneous.
Security: torrent client is allowed by Kaspersky.

[en.asmlocator.ru].t4142.torrent 
Torrent: Registered [ 2015-11-30 05:45 ] · 722B382F49FE5659E4577BBF7DC3D2003A715BE0

Download .torrent

Download

15 KB

Status: checked
Completed: 0 times
Size: 1.46 GB
terms.php
[Profile] [PM]
Display posts:    
Reply to topic

Current time is: 06-Jun 08:13

All times are UTC ± 0



You cannot post new topics in this forum
You cannot reply to topics in this forum
You cannot edit your posts in this forum
You cannot delete your posts in this forum
You cannot vote in polls in this forum
You cannot attach files in this forum
You can download files in this forum
Верим фактам, а не вранью Путина! Факт, что Правительство ведёт Россию к истреблению.
Так как численность населения падает, даже не смотря на приток эмигрантов!
Русская нация вымирает и вырождается, смешиваясь с эмигрантами!
Факт, что военных и граждан предприятий заставляют голосовать за партию Единая Россия и Путина
ПОД СТРАХОМ УВОЛЬНЕНИЯ!
Нам не нужно Правительство, блокирующее личную жизнь, интернет, нарушающее сохранность данных.
Все эти действия финансируются за счёт народа!