[SACD-R][OF] Nicholas Gunn - Through the Great Smoky Mountains: A Musical Journey - 2002 (New Age)

Reply to topic
DL-List and Torrent activity
Size:  2.74 GB   |    Registered:  2 years 8 months   |    Completed:  1 time

Seeder not seen: 15 minutes

 
   
 
 
Author Message

star21 ®

Gender: Female

Longevity: 4 years 6 months

Posts: 551945

Location: Екатеринбург

Post 28-Sep-2017 21:50

[Quote]

Nicholas Gunn / Through the Great Smoky Mountains: A Musical Journey Формат записи/Источник записи: [SACD-R][OF]
Наличие водяных знаков: Нет
Год издания/переиздания диска: 2002
Жанр: New Age
Издатель(лейбл): Gemini Sun Records
Продолжительность: 48:24
Наличие сканов в содержимом раздачи: Да (сканы)Треклист:01. Call of the Wild 4:02
02. The Highest Point 5:03
03. Cades Cove 4:35
04. Chieftan’s Song 4:24
05. The Place of Blue Smoke 5:22
06. Azaela Sunrise 3:07
07. Trail of Tears 4:51
08. Awakening 4:17
09. Ramsey Cascades 4:11
10. Passage Through Ancient Relics 4:38
11. Dance of Light 3:54Контейнер: ISO (*.iso)
Тип рипа: imageРазрядность: 64(2,8 MHz/1 Bit)
Формат: DST64
Количество каналов: 2.0 & 5.0

Лог проверки качества: DR11

oobar2000 1.3.10 / Dynamic Range Meter 1.1.1log date: 2016-08-14 21:23:45--------------------------------------------------------------------------------Analyzed: NICHOLAS GUNN / THROUGH THE GREAT SMOKY MOUNTAINS--------------------------------------------------------------------------------DR         Peak         RMS     Duration Track--------------------------------------------------------------------------------DR11      -3.07 dB   -18.98 dB      4:02 01-CALL OF THE WILDDR11      -3.06 dB   -18.01 dB      5:03 02-THE HIGHEST POINTDR10      -2.92 dB   -16.83 dB      4:35 03-CADES COVEDR12      -2.82 dB   -18.75 dB      4:24 04-CHIEFTAN'S SONGDR10      -2.56 dB   -16.42 dB      5:22 05-THE PLACE OF BLUE SMOKEDR9      -10.83 dB   -26.97 dB      3:07 06-AZAELA SUNRISEDR10      -5.59 dB   -20.48 dB      4:51 07-TRAIL OF TEARSDR11      -2.99 dB   -18.67 dB      4:17 08-AWAKENINGDR11      -2.83 dB   -16.49 dB      4:11 09-RAMSEY CASCADESDR13      -2.69 dB   -20.19 dB      4:38 10-PASSAGE THROUGH ANCIENT RELICSDR11      -6.04 dB   -21.80 dB      3:54 11-DANCE OF LIGHT--------------------------------------------------------------------------------Number of tracks:  11Official DR value: DR11Samplerate:        2822400 Hz / PCM Samplerate: 88200 HzChannels:          5Bits per sample:   1Bitrate:           14112 kbpsCodec:             DST64================================================================================--------------------------------------------------------------------------------Analyzed: NICHOLAS GUNN / THROUGH THE GREAT SMOKY MOUNTAINS--------------------------------------------------------------------------------DR         Peak         RMS     Duration Track--------------------------------------------------------------------------------DR11      -3.22 dB   -16.99 dB      4:02 01-CALL OF THE WILDDR11      -4.50 dB   -17.94 dB      5:03 02-THE HIGHEST POINTDR10      -3.88 dB   -17.16 dB      4:35 03-CADES COVEDR12      -3.97 dB   -18.62 dB      4:24 04-CHIEFTAN'S SONGDR12      -3.04 dB   -17.91 dB      5:22 05-THE PLACE OF BLUE SMOKEDR9      -11.92 dB   -25.60 dB      3:07 06-AZAELA SUNRISEDR11      -6.92 dB   -20.54 dB      4:51 07-TRAIL OF TEARSDR12      -3.25 dB   -19.54 dB      4:17 08-AWAKENINGDR12      -3.74 dB   -18.60 dB      4:11 09-RAMSEY CASCADESDR14      -3.06 dB   -20.01 dB      4:38 10-PASSAGE THROUGH ANCIENT RELICSDR11      -7.79 dB   -21.00 dB      3:54 11-DANCE OF LIGHT--------------------------------------------------------------------------------Number of tracks:  11Official DR value: DR11Samplerate:        2822400 Hz / PCM Samplerate: 88200 HzChannels:          2Bits per sample:   1Bitrate:           5645 kbpsCodec:             DST64================================================================================

Скриншот спектра частот

2.0: 5.0->2.0:
Источник (релизер): ManWhoCan

Состав

Nicholas Gunn (flute, piano, synthesizer, percussion); John Bischoff (acoustic guitar); Daniel Bell (programming)

Об исполнителе (группе)

Nicholas Gunn (born 30.05.1968) - Producer/Musician
Birth name: Nicholas Graham Gunn
Origin: Rochester, Kent, England
Genres: Electronic Dance Music, World Music, Instrumental
Occupation(s): Record Producer, Musician, Composer, Arranger
Instruments: Flute, percussion, drums, synthesizer, keyboard
Years active: 1992–present
Labels: Real Music, Gemini Sun Records, Spring Hill Music, Shotgunn ProductionsNicholas Gunn, also known as Nick Gunn, is a classically trained musician and music producer. He is a Top-Ten Billboard charting musician known for his instrumental works under Nicholas Gunn and his EDM (Electronic Dance Music) works as producer for duo (We Are) Nexus.

Об альбоме (сборнике)

AllMusic Review by Jonathan Widran:
This inventive, beautifully melodic composer, flutist, keyboardist, and producer has made nature appreciation a true art form. He launched his career a decade ago with Afternoon in Sedona and has recorded incredibly lush sonic interpretations of the Southwest and Grand Canyon since then. His national park itinerary moves east to Tennessee this time, where he's inspired once again to create an impressionistic travelogue of tribal rhythms, dreamy atmospheres, and hypnotic melodies, spiced with evocative nature sounds, all in the service of telling tales of the Great Smokies' ancestral past with an eye toward their future preservation (he's donating ten percent of the proceeds to the Natural History Association to help preserve the park's beauty). Good thing he provides a lush road map in the form of lovely photography and a liner-note explanation for each track, because the music sounds much like his Southwest tomes, with a little more musical mist (to reflect that atop the mountains) and a little less Native Americanisms. It's an enjoyable ride nonetheless, beginning with "Call of the Wild," dedicated to the rare red wolf and moving from soft and gentle to aggressive and primal, with Gunn weaving his flute through a forest of nature sounds and thick percussion. "The Highest Point" is illustrated with building musical drama as listeners are urged to climb up to Clingman's Dome and take a deep breath. The deeply reflective "Chieftain's Song" is an ode to the Scottish-Irish settlers of centuries past, while "The Place of Blue Smoke" combines gentle morning mist and a rumbling distant thunderstorm. The cricket-enhanced "Azalea Sunrise" is an ample showcase for the graceful work of guest guitarist John Bishoff. Gunn's journeys are the new age listener's joyful gain.

To download the content you need:
1. Download and install torrent client [for Windows] or for mobile system
2. Click on [Download]
Attention.
If the test YOU are NOT a ROBOT - does not work, then You are using an outdated browser.
Install the current browser and click on [Download]

Do not work with Yandex browser. Uploading files to them is erroneous.
Security: torrent client is allowed by Kaspersky.

[en.asmlocator.ru].t393578.torrent 
Torrent: Registered [ 2017-09-28 21:50 ] · 7E9BEF9874EE554BD7FC3594B3B694E5C22BBDC6

Download .torrent

Download

15 KB

Status: checked
Completed: 1 times
Size: 2.74 GB
terms.php
[Profile] [PM]
Display posts:    
Reply to topic

Current time is: 31-May 12:10

All times are UTC ± 0



You cannot post new topics in this forum
You cannot reply to topics in this forum
You cannot edit your posts in this forum
You cannot delete your posts in this forum
You cannot vote in polls in this forum
You cannot attach files in this forum
You can download files in this forum
Верим фактам, а не вранью Путина! Факт, что Правительство ведёт Россию к истреблению.
Так как численность населения падает, даже не смотря на приток эмигрантов!
Русская нация вымирает и вырождается, смешиваясь с эмигрантами!
Факт, что военных и граждан предприятий заставляют голосовать за партию Единая Россия и Путина
ПОД СТРАХОМ УВОЛЬНЕНИЯ!
Нам не нужно Правительство, блокирующее личную жизнь, интернет, нарушающее сохранность данных.
Все эти действия финансируются за счёт народа!