Чернобыль. До и после (Сергей Борисенко) [2016, документальный, TVRip]

Reply to topic
DL-List and Torrent activity
Size:  559 MB   |    Registered:  3 years   |    Completed:  0 times

Seeder not seen: Never

 
   
 
 
Author Message

star21 ®

Gender: Female

Longevity: 4 years 4 months

Posts: 551945

Location: Екатеринбург

Post 06-Mar-2017 19:05

[Quote]

Чернобыль. До и после
Дата/Год выпуска: 2016
Страна: Россия
Жанр: документальный
Продолжительность: 00:44:31
Перевод: Не требуется
Режиссер: Сергей Борисенко
Описание: Эта история стала известна в наши дни. А начиналась она в 1986 году, когда еще не все осознавали, какой катастрофой для страны обернулся тот апрельский день после взрыва на четвертом реакторе Чернобыльской атомной электростанции. На одном из бесконечных совещаний прозвучало: "Нужно посылать к реактору людей". Все понимали, что это означало одно - выбирать смертников. Ситуация не оставляла вариантов. Руководителем группы стал офицер военной контрразведки, принимавший участие в ликвидации последствий аварии на АЭС, Анатолий Ткачук. Каждый из группы понимал, что дорога, которую им предстояла пройти, это дорога в бездну. Шансов вернуться живыми практически не оставалось.
Такую битву с атомным реактором человечество не вело никогда. Враг был видимый и невидимый. Разрушения и радиация. Самым сложным было рассчитать допустимую дозу облучения, после которой нужно было покидать АЭС. Первые два месяца оказались самыми драматическими. Появилось слово "ликвидатор". Позже своей емкостью оно многое смогло рассказать о тех днях.
Впервые СССР согласился на полное сотрудничество с Западом в устранении последствий катастрофы. Вслед за специалистами из МАГАТЭ в Союз потянулись с Запада многие представители разных общественных организаций. Не всегда их интерес был бескорыстным. Все спецслужбы мира проявляли желание к тому, чтобы получить достоверную информацию о том, что произошло. Какие выводы можно сделать после такой аварии? И можно ли использовать эту информацию в военных целях? Если ученые экстренно решали свои научные задачи, то советским контрразведчикам приходилось в своей работе обращать внимание на специфические стороны последствий катастрофы.
Битву с реактором выиграли люди. Выиграла большая и сильная страна - Советский Союз.
Сэмпл: http://sendfile.su/1228888
качество: TVRip
формат: AVI
Видео: XviD, 1616 Кбит/сек, 720 x 416 (1.731), 25.000 fps
Аудио: МР3, 128 Кбит/сек, 2 канала, 48,0 КГц

MediaInfo

ОбщееПолное имя                               : T:\Мои раздачи\Чернобыль. До и после (2016)\Чернобыль до и после (2016).aviФормат                                   : AVIФормат/Информация                        : Audio Video InterleaveРазмер файла                             : 559 МбайтПродолжительность                        : 44 м.Общий поток                              : 1754 Кбит/секПрограмма кодирования                    : VirtualDubModRus 1.5.10.2 (build 2542/release)Библиотека кодирования                   : VirtualDubMod build 2542/release
ВидеоИдентификатор : 0Формат : MPEG-4 VisualПрофиль формата : Advanced Simple@L5Параметр BVOP формата : 2Параметр QPel формата : НетПараметр GMC формата : Без точки переходаПараметр матрицы формата : Default (H.263)Идентификатор кодека : XVIDИдентификатор кодека/Подсказка : XviDПродолжительность : 44 м.Битрейт : 1616 Кбит/секШирина : 720 пикселейВысота : 416 пикселейСоотношение сторон : 1,731Частота кадров : 25,000 кадров/секЦветовое пространство : YUVСубдискретизация насыщенности : 4:2:0Битовая глубина : 8 битТип развёртки : ПрогрессивнаяМетод сжатия : С потерямиБит/(Пиксели*Кадры) : 0.216Размер потока : 515 Мбайт (92%)Библиотека кодирования : XviD 1.2.1 (UTC 2008-12-04)
АудиоИдентификатор : 1Формат : MPEG AudioВерсия формата : Version 1Профиль формата : Layer 3Идентификатор кодека : 55Идентификатор кодека/Подсказка : MP3Продолжительность : 44 м.Вид битрейта : ПостоянныйБитрейт : 128 Кбит/секКаналы : 2 каналаЧастота : 48,0 КГцМетод сжатия : С потерямиРазмер потока : 40,8 Мбайт (7%)Выравнивание : Соединение по промежуткамПродолжительность промежутка : 40 мс. (1,00 видеокадр)Время предзагрузки промежутка : 504 мс.Библиотека кодирования : LAME3.98rНастройки программы : -m s -V 4 -q 2 -lowpass 17 -b 128

Скриншоты

To download the content you need:
1. Download and install torrent client [for Windows] or for mobile system
2. Click on [Download]
Attention.
If the test YOU are NOT a ROBOT - does not work, then You are using an outdated browser.
Install the current browser and click on [Download]

Do not work with Yandex browser. Uploading files to them is erroneous.
Security: torrent client is allowed by Kaspersky.

[en.asmlocator.ru].t310909.torrent 
Torrent: Registered [ 2017-03-06 19:05 ] · 1A8C13AEC8899EEEFD00B3C62170E58116FF2B89

Download .torrent

Download

11 KB

Status: checked
Completed: 0 times
Size: 559 MB
terms.php
[Profile] [PM]
Display posts:    
Reply to topic

Current time is: 03-Apr 22:30

All times are UTC ± 0



You cannot post new topics in this forum
You cannot reply to topics in this forum
You cannot edit your posts in this forum
You cannot delete your posts in this forum
You cannot vote in polls in this forum
You cannot attach files in this forum
You can download files in this forum
Верим фактам, а не вранью Путина! Факт, что Правительство ведёт Россию к истреблению.
Так как численность населения падает, даже не смотря на приток эмигрантов!
Русская нация вымирает и вырождается, смешиваясь с эмигрантами!
Факт, что военных и граждан предприятий заставляют голосовать за партию Единая Россия и Путина
ПОД СТРАХОМ УВОЛЬНЕНИЯ!
Нам не нужно Правительство, блокирующее личную жизнь, интернет, нарушающее сохранность данных.
Все эти действия финансируются за счёт народа!